Jump to content
PirateClub.hu
ninoel

Teherán (Tehran) 2020.720p.10bit.WEB-DL.x265.HunSub 8. rész

Recommended Posts

Teherán (Tehran) 2020.720p.10bit.WEB-DL.x265.HunSub
magyar feliratos, izraeli sorozat, thriller. dráma. 45perc, 200 Mb/rész

tehran.jpg

720p.png

hevc_265_hu_2.jpg

Egy Jordániából Indiába tartó repülőgép kénytelen leszállni Iránban, ami a fedélzeten tartózkodó izraeli utasokat igen kellemetlenül érinti a két ország ellenséges viszonya miatt. Azonban a fő szálat nem az ő rendőrök által feltartóztatásuk jelenti, hanem az, hogy egy fiatal Moszad-ügynök is a gépen tartózkodik, és így lép akcióba, személyiséget cserélve valakivel.

RENDEZŐ: Daniel Syrkin
FORGATÓKÖNYVÍRÓ: Dana Eden, Maor Kohn, Omri Shenhar, Daniel Syrkin
ZENE: Mark Eliyahu
SZEREPLŐK: Navid Negahban, Shaun Toub, Menashe Noy, Arash Marandi, Reza Brojerdi, Moe Bar-El, Niv Sultan, Shervin Alenabi

Spoiler

 

Video
ID                          : 1
Format                      : HEVC
Format/Info                 : High Efficiency Video Coding
Format profile              : Main 10@L4@High
Codec ID                    : V_MPEGH/ISO/HEVC
Duration                    : 50 min 14 s
Bit rate                    : 482 kb/s
Width                       : 1 280 pixels
Height                      : 536 pixels
Display aspect ratio        : 2.40:1
Frame rate mode             : Constant
Frame rate                  : 23.976 (24000/1001) FPS
Color space                 : YUV
Chroma subsampling          : 4:2:0
Bit depth                   : 10 bits
Bits/(Pixel*Frame)          : 0.029
Stream size                 : 173 MiB (88%)
Default                     : Yes
Forced                      : No
Color range                 : Limited
Color primaries             : BT.709
Transfer characteristics    : BT.709
Matrix coefficients         : BT.709

Audio
ID                          : 2
Format                      : AAC LC SBR
Format/Info                 : Advanced Audio Codec Low Complexity with Spectral Band Replication
Commercial name             : HE-AAC
Format settings             : Explicit
Codec ID                    : A_AAC-2
Duration                    : 50 min 14 s
Bit rate                    : 63.0 kb/s
Channel(s)                  : 2 channels
Channel layout              : L R
Sampling rate               : 48.0 kHz
Frame rate                  : 23.438 FPS (2048 SPF)
Compression mode            : Lossy
Delay relative to video     : 40 ms
Stream size                 : 22.6 MiB (12%)
Language                    : Hebrew
Default                     : No
Forced                      : No

Text
ID                          : 3
Format                      : UTF-8
Codec ID                    : S_TEXT/UTF8
Codec ID/Info               : UTF-8 Plain Text
Duration                    : 49 min 34 s
Bit rate                    : 43 b/s
Count of elements           : 542
Stream size                 : 15.6 KiB (0%)
Language                    : Hungarian
Default                     : Yes
Forced                      : No

 

Spoiler

Hidden Content

    Give reaction or reply to this topic to see the hidden content.

 

 

  • Like 3
  • Thanks 7

Share this post


Link to post
Share on other sites

szia, felteszed majd a 8. részt is? köszönöm

Share this post


Link to post
Share on other sites
53 minutes ago, komil said:

szia, felteszed majd a 8. részt is? köszönöm

Már feltették ,de miért nem használod a keresőt ?

Share this post


Link to post
Share on other sites

hova? nem vagyok prémium tag a data-n

Share this post


Link to post
Share on other sites

Teherán (Tehran) 2020.720p.10bit.WEB-DL.x265.HunSub  8. rész.

  • Like 1

Share this post


Link to post
Share on other sites

  • Recently Browsing   0 members

    No registered users viewing this page.

×