Jump to content
PirateClub.hu
Sign in to follow this  
ninoel

Vadállat (Beast) 2017.1080p.10bit.BluRay.x265.6CH.hun

Recommended Posts

Vadállat (Beast) 2017.1080p.10bit.BluRay.x265.6CH.hun
szinkronizált, angol filmdráma, misztikus, krimi, 106 perc, 1.7 Gb

beast.jpg

1080p-10bit-3v.png

hevc_265_hu_2.jpg

Egy kis sziget világtól elzárt közösségében él a huszonhét éves Moll a családjával. Amikor találkozik Pascallal, a szabadszellemű idegennel, egy teljesen új világ nyílik meg előtte, és életében először élvezi az életet. Őrülten beleszeret a férfiba, és végül Pascalhoz költözik, új életet kezd. A férfit azonban sorozatgyilkosság vádjával letartóztatják. Moll elszigetelődik, és félelemben él. A fiatal nő arra kényszerül, hogy olyan döntéseket hozzon, amelyek örökre megváltoztatják az életét.

RENDEZŐ: Michael Pearce
ÍRÓ: Michael Pearce
ZENE: Jim Williams
SZEREPLŐK: Johnny Flynn, Jessie Buckley, Geraldine James, Oliver Maltman, Trystan Gravelle, Emily Taaffe, Shannon Tarbet

Spoiler

 

Video
ID                          : 1
Format                      : HEVC
Format/Info                 : High Efficiency Video Coding
Format profile              : Main 10@L4@Main
Codec ID                    : V_MPEGH/ISO/HEVC
Duration                    : 1 h 46 min
Bit rate                    : 1 985 kb/s
Width                       : 1 920 pixels
Height                      : 808 pixels
Display aspect ratio        : 2.40:1
Frame rate mode             : Constant
Frame rate                  : 24.000 FPS
Color space                 : YUV
Chroma subsampling          : 4:2:0
Bit depth                   : 10 bits
Bits/(Pixel*Frame)          : 0.053
Stream size                 : 1.48 GiB (93%)
Default                     : Yes
Forced                      : No

Audio
ID                          : 2
Format                      : AAC LC SBR
Format/Info                 : Advanced Audio Codec Low Complexity with Spectral Band Replication
Commercial name             : HE-AAC
Format settings             : Explicit
Codec ID                    : A_AAC-2
Duration                    : 1 h 46 min
Bit rate                    : 159 kb/s
Channel(s)                  : 6 channels
Channel layout              : C L R Ls Rs LFE
Sampling rate               : 48.0 kHz
Frame rate                  : 23.438 FPS (2048 SPF)
Compression mode            : Lossy
Stream size                 : 121 MiB (7%)
Language                    : Hungarian
Default                     : Yes
Forced                      : No

 

Spoiler

Hidden Content

    Give reaction or reply to this topic to see the hidden content.

 

 

  • Like 2
  • Thanks 2

Share this post


Link to post
Share on other sites
Sign in to follow this  

  • Recently Browsing   0 members

    No registered users viewing this page.

×