Jump to content
PirateClub.hu
Sign in to follow this  
ninoel

Diane védelmében (The Good Fight) 2020.720p.WEB-DL.x264.Hun 4.T 5.T évad

Recommended Posts

Diane védelmében (The Good Fight) 2020.720p.WEB-DL.x264
szinkronizált, amerikai filmsorozat, 450 Mb/rész

the-good-fight.jpg

x264_Logo.png

720p_Full_HD_v.2.png

Miután hét évadot követően véget ért A férjem védelmében című széria, az alkotók megfejelték a sikert: elkészítették annak oldajhajtását, amelyben annak egyik szereplője, Diane Lockhart kerül előtérbe. Egy évvel a széria utolsó epizódjának eseményei után hatalmas pénzügyi botrány robban ki, ami miatt Diane a munkahelyét és a megtakarításait is elveszti, ráadásul a keresztlányának, Maiának, a fiatal, kezdő ügyvédnek a neve is besározódik. Arra kényszerülnek, hogy egy új cégnél bizonyítsanak.

RENDEZŐ: Jim McKay
KAMERA: Fred Murphy
VÁGÓ: Christopher S. Capp
      Jake Cohen
      Matthew Kregor
ZENESZERZŐ: David Buckley

Szereplők
Diane Lockhart-Christine Baranski
Maia Rindell-Rose Leslie
Barbara Kolstad-Erica Tazel
Lucca Quinn-Cush Jumbo
Adrian Boseman-Delroy Lindo
Henry Rindell-Paul Guilfoyle
Marissa Gold-Sarah Steele
Lenore Rindell-Bernadette Peters
Colin Morello-Justin Bartha
Jay Dipersia-Nyambi
Julius Cain-Michael Boatman

Spoiler

 

Video
ID                          : 1
Format                      : AVC
Format/Info                 : Advanced Video Codec
Format profile              : High@L3.1
Format settings             : CABAC / 4 Ref Frames
Format settings, CABAC      : Yes
Format settings, Reference  : 4 frames
Codec ID                    : V_MPEG4/ISO/AVC
Duration                    : 41 min 52 s
Bit rate                    : 960 kb/s
Width                       : 1 280 pixels
Height                      : 536 pixels
Display aspect ratio        : 2.40:1
Frame rate mode             : Constant
Frame rate                  : 24.000 FPS
Color space                 : YUV
Chroma subsampling          : 4:2:0
Bit depth                   : 8 bits
Scan type                   : Progressive
Bits/(Pixel*Frame)          : 0.058
Stream size                 : 288 MiB (88%)
Default                     : Yes
Forced                      : No
Color range                 : Limited
Color primaries             : BT.709
Transfer characteristics    : BT.709
Matrix coefficients         : BT.709

Audio
ID                          : 2
Format                      : AAC LC
Format/Info                 : Advanced Audio Codec Low Complexity
Codec ID                    : A_AAC-2
Duration                    : 41 min 52 s
Bit rate                    : 125 kb/s
Channel(s)                  : 2 channels
Channel layout              : L R
Sampling rate               : 48.0 kHz
Frame rate                  : 46.875 FPS (1024 SPF)
Compression mode            : Lossy
Stream size                 : 37.6 MiB (12%)
Language                    : Hungarian
Default                     : Yes
Forced                      : No

Spoiler

Hidden Content

    Give reaction or reply to this topic to see the hidden content.

 

5. évad

Hidden Content

    Give reaction or reply to this topic to see the hidden content.

 

  • Like 8
  • Thanks 6

Share this post


Link to post
Share on other sites

Diane védelmében (The Good Fight) 2020.720p.WEB-DL.x264  5.évad   10. rész.

  • Like 2
  • Thanks 2

Share this post


Link to post
Share on other sites
Sign in to follow this  

  • Recently Browsing   0 members

    No registered users viewing this page.

×