Jump to content
PirateClub.hu
Sign in to follow this  
ninoel

Elszigetelve (Cut.Off.A.K.A.Abgeschnitten) 2018.1080p.10bit.BluRay.x265.6CH.Hun

Recommended Posts

Elszigetelve (Cut.Off.A.K.A.Abgeschnitten) 2018.1080p.10bit.BluRay.x265.6CH.Hun
szinkronizált, német krimi, horror, 131 perc, 1.7 Gb

cut-off.jpg

1080p-10bit-3v.png

hevc_265_hu_2.jpg

A képregényrajzoló Linda csapdába esett a vihar miatt elzárt szigeten. Csak akkor menekülhet a kegyetlen exbarátjától, illetve mentheti meg az orvos elrabolt lányát, ha elvégez egy boncolást, és megtalálja a holttestben elrejtett nyomot.

RENDEZŐ: Christian Alvart
ÍRÓ: Sebastian Fitzek, Michael Tsokos
FORGATÓKÖNYVÍRÓ: Christian Alvart
ZENE: Maurus Ronner, Christoph Schauer
SZEREPLŐK: Moritz Bleibtreu, Lars Eidinger, Fahri Yardım, Jasna Fritzi Bauer, Enno Hesse, Urs Jucker, Ben Münchow

Spoiler

 

Video
ID                          : 1
Format                      : HEVC
Format/Info                 : High Efficiency Video Coding
Format profile              : Main 10@L4@Main
Codec ID                    : V_MPEGH/ISO/HEVC
Duration                    : 2 h 11 min
Bit rate                    : 1 641 kb/s
Width                       : 1 920 pixels
Height                      : 808 pixels
Display aspect ratio        : 2.40:1
Frame rate mode             : Constant
Frame rate                  : 23.976 (24000/1001) FPS
Color space                 : YUV
Chroma subsampling          : 4:2:0
Bit depth                   : 10 bits
Bits/(Pixel*Frame)          : 0.044
Stream size                 : 1.51 GiB (91%)
Default                     : Yes
Forced                      : No

Audio
ID                          : 2
Format                      : AAC LC SBR
Format/Info                 : Advanced Audio Codec Low Complexity with Spectral Band Replication
Commercial name             : HE-AAC
Format settings             : Explicit
Codec ID                    : A_AAC-2
Duration                    : 2 h 11 min
Bit rate                    : 159 kb/s
Channel(s)                  : 6 channels
Channel layout              : C L R Ls Rs LFE
Sampling rate               : 48.0 kHz
Frame rate                  : 23.438 FPS (2048 SPF)
Compression mode            : Lossy
Stream size                 : 150 MiB (9%)
Language                    : Hungarian
Default                     : Yes
Forced                      : No

 

Spoiler

Hidden Content

    Give reaction or reply to this topic to see the hidden content.

 

 

  • Like 3
  • Thanks 3
  • Upvote 1

Share this post


Link to post
Share on other sites
Sign in to follow this  

  • Recently Browsing   0 members

    No registered users viewing this page.

×