Jump to content
PirateClub.hu
ninoel

Volhínia (Wolyn (Hatred)) 2016.1080p.10bit.BluRay.x265.6CH.Pol.HunSub

Recommended Posts

Volhínia (Wolyn (Hatred)) 2016.1080p.10bit.BluRay.x265.6CH.Pol.HunSub
magyar feliratos, lengyel filmdráma, 148 perc, 1.7 Gb

volin.jpg

1080p-10bit-3v.png

hevc_265_hu_2.jpg

18plus.png

Kicsiny, ukránok, lengyelek és zsidók által lakott falucska Volhínia dél-nyugati részén. 1939. Zosia Głowacka egy falubéli ukrán fiúba szerelmes. Apja mégis a lengyel Maciej Skibához, a legtehetősebb gazdához, egy kétgyermekes, özvegy és jóval idősebb férfihez akarja adni.
A falucska életét először a szovjet megszállás változtatja meg, két évvel később pedig a Szovjetunió elleni német támadás. A következő két évben folyik a zsidók elleni hajtóvadászat és a brutális legyilkolásuk. Ideje közben a független ukrán állam megteremtésére irányuló vágyak egyre erősödnek, velük együtt nő a feszültség is a lengyel és ukrán szomszédok között. Végül is 1943 nyarán kitör a gyilkosságok és kegyetlen aktusok őrülete. Az UPA csapatai lengyel településeket támadnak, a lengyelek pedig időnként hasonló kegyetlenséggel vesznek elégtételt az ukránokon. A gyűlölet tengerében Zosia megpróbálja menteni gyermekeit.

Vágó: Pawel Laskowski
Kamera: Piotr Sobocinski Jr.
Zene: Mikolaj Trzaska
Producer: Feliks Pastusiak
Slawomir Salamon
Rendező: Wojciech Smarzowski

Szereplők:
Arkadiusz Jakubik - Maciej Skiba
Izabela Kuna - Glowacka
Lech Dyblik - Hawryluk
Michal Gadomski - Jurny Jurczak
Gabriela Muskala - Bronka
Tomasz Sapryk - Izaak Menzl
Jerzy Rogalski - Wincenty Kwiatkowski

Spoiler

 

Video
ID                          : 1
Format                      : HEVC
Format/Info                 : High Efficiency Video Coding
Format profile              : Main 10@L4.1@High
Codec ID                    : V_MPEGH/ISO/HEVC
Duration                    : 2 h 28 min
Bit rate                    : 1 420 kb/s
Width                       : 1 920 pixels
Height                      : 808 pixels
Display aspect ratio        : 2.40:1
Frame rate mode             : Constant
Frame rate                  : 24.000 FPS
Color space                 : YUV
Chroma subsampling          : 4:2:0
Bit depth                   : 10 bits
Bits/(Pixel*Frame)          : 0.038
Stream size                 : 1.48 GiB (90%)
Default                     : Yes
Forced                      : No
Color range                 : Limited
Color primaries             : BT.709
Transfer characteristics    : BT.709
Matrix coefficients         : BT.709

Audio
ID                          : 2
Format                      : AAC LC SBR
Format/Info                 : Advanced Audio Codec Low Complexity with Spectral Band Replication
Commercial name             : HE-AAC
Format settings             : Explicit
Codec ID                    : A_AAC-2
Duration                    : 2 h 28 min
Bit rate                    : 159 kb/s
Channel(s)                  : 6 channels
Channel layout              : C L R Ls Rs LFE
Sampling rate               : 48.0 kHz
Frame rate                  : 23.438 FPS (2048 SPF)
Compression mode            : Lossy
Stream size                 : 169 MiB (10%)
Language                    : Polish
Default                     : Yes
Forced                      : No

Text
ID                          : 3
Format                      : UTF-8
Codec ID                    : S_TEXT/UTF8
Codec ID/Info               : UTF-8 Plain Text
Duration                    : 2 h 21 min
Bit rate                    : 28 b/s
Count of elements           : 737
Stream size                 : 29.8 KiB (0%)
Language                    : Hungarian
Default                     : Yes
Forced                      : No

 


 

Hidden Content

    Give reaction or reply to this topic to see the hidden content.

 

  • Like 5
  • Thanks 6

Share this post


Link to post
Share on other sites

  • Recently Browsing   0 members

    No registered users viewing this page.

×