Jump to content
PirateClub.hu
Sign in to follow this  
ninoel

Az eltévedt golyó (Balle perdue) 2020.1080p.10bit.WEBRip.x265.HunSub.6CH.Fre

Recommended Posts

Az eltévedt golyó (Balle perdue) 2020.1080p.10bit.WEBRip.x265.HunSub.6CH.Fre
magyar feliratos, francia akció, krimi, 93 perc, 1.7 Gb

perdue-balle.jpg

1080p-10bit-3v.png

hevc_265_hu_2.jpg

Egy rendőrségen dolgozó volt piti bűnözőnek súlyos vádakkal kell
szembenéznie, miután mentorát váratlanul meggyilkolják.

RENDEZŐ: Guillaume Pierret
FORGATÓKÖNYVÍRÓ: Guillaume Pierret, Alban Lenoir, Kamel Guemra
ZENE: André Dziezuk
SZEREPLŐK: Nicolas Duvauchelle , Ramzy Bedia , Alban Lenoir , Pascale Arbillot , Rod Paradot , Stéfi Celma , Sébastien Lalanne

Spoiler

 

Video
ID                          : 1
Format                      : HEVC
Format/Info                 : High Efficiency Video Coding
Format profile              : Main 10@L4@Main
Codec ID                    : V_MPEGH/ISO/HEVC
Duration                    : 1 h 33 min
Bit rate                    : 2 242 kb/s
Width                       : 1 920 pixels
Height                      : 800 pixels
Display aspect ratio        : 2.40:1
Frame rate mode             : Constant
Frame rate                  : 25.000 FPS
Color space                 : YUV
Chroma subsampling          : 4:2:0
Bit depth                   : 10 bits
Bits/(Pixel*Frame)          : 0.058
Stream size                 : 1.46 GiB (91%)
Default                     : Yes
Forced                      : No

Audio
ID                          : 2
Format                      : AAC LC SBR
Format/Info                 : Advanced Audio Codec Low Complexity with Spectral Band Replication
Commercial name             : HE-AAC
Format settings             : Explicit
Codec ID                    : A_AAC-2
Duration                    : 1 h 33 min
Bit rate                    : 208 kb/s
Channel(s)                  : 6 channels
Channel layout              : C L R Ls Rs LFE
Sampling rate               : 48.0 kHz
Frame rate                  : 23.438 FPS (2048 SPF)
Compression mode            : Lossy
Delay relative to video     : 23 ms
Stream size                 : 138 MiB (8%)
Language                    : French
Default                     : Yes
Forced                      : No

Text
ID                          : 3
Format                      : UTF-8
Codec ID                    : S_TEXT/UTF8
Codec ID/Info               : UTF-8 Plain Text
Duration                    : 1 h 31 min
Bit rate                    : 25 b/s
Count of elements           : 685
Stream size                 : 17.2 KiB (0%)
Title                       : Hungarian
Language                    : Hungarian
Default                     : No
Forced                      : No

 

Hidden Content

    Give reaction or reply to this topic to see the hidden content.

 

  • Like 7
  • Thanks 6
  • Upvote 1

Share this post


Link to post
Share on other sites
Sign in to follow this  

  • Recently Browsing   0 members

    No registered users viewing this page.

×