Jump to content
PirateClub.hu
Sign in to follow this  
ninoel

Force of Nature.2020.1080p.10bit.BluRay.6CH.x265.Eng

Recommended Posts

Force of Nature.2020.1080p.10bit.BluRay.6CH.x265.Eng
amerikai dráma, akció film, 91 perc, 1.7 Gb

force-nature.jpg

720p_10bit.png

hevc_265_hu_2.jpg

Miközben tombol a hurrikán, egy bűnözőcsoport épp egy rablást
tervez az épületben, melynek lakói biztonságáért egy rendőr felel.

RENDEZŐ: Michael Polish
ÍRÓ: Cory Miller
FORGATÓKÖNYVÍRÓ: Cory Miller
ZENE: Kubilay Uner
SZEREPLŐK: Mel Gibson , Emile Hirsch , Kate Bosworth , David Zayas , Tyler Jon Olson , William Catlett , Rey Hernandez , Stephanie Cayo

Spoiler

 

Video
ID                          : 1
Format                      : HEVC
Format/Info                 : High Efficiency Video Coding
Format profile              : Main 10@L4@Main
Codec ID                    : V_MPEGH/ISO/HEVC
Duration                    : 1 h 31 min
Bit rate                    : 2 389 kb/s
Width                       : 1 920 pixels
Height                      : 808 pixels
Display aspect ratio        : 2.40:1
Frame rate mode             : Constant
Frame rate                  : 23.976 (24000/1001) FPS
Color space                 : YUV
Chroma subsampling          : 4:2:0
Bit depth                   : 10 bits
Bits/(Pixel*Frame)          : 0.064
Stream size                 : 1.52 GiB (92%)
Default                     : Yes
Forced                      : No

Audio
ID                          : 2
Format                      : AAC LC SBR
Format/Info                 : Advanced Audio Codec Low Complexity with Spectral Band Replication
Commercial name             : HE-AAC
Format settings             : Explicit
Codec ID                    : A_AAC-2
Duration                    : 1 h 31 min
Bit rate                    : 209 kb/s
Channel(s)                  : 6 channels
Channel layout              : C L R Ls Rs LFE
Sampling rate               : 48.0 kHz
Frame rate                  : 23.438 FPS (2048 SPF)
Compression mode            : Lossy
Delay relative to video     : 23 ms
Stream size                 : 136 MiB (8%)
Language                    : English
Default                     : Yes
Forced                      : No

Text
ID                          : 3
Format                      : UTF-8
Codec ID                    : S_TEXT/UTF8
Codec ID/Info               : UTF-8 Plain Text
Duration                    : 1 h 26 min
Bit rate                    : 58 b/s
Count of elements           : 1325
Stream size                 : 36.8 KiB (0%)
Language                    : English
Default                     : Yes
Forced                      : No

 

Hidden Content

    Give reaction or reply to this topic to see the hidden content.

 

  • Like 4
  • Thanks 6
  • Upvote 1

Share this post


Link to post
Share on other sites
Sign in to follow this  

  • Recently Browsing   0 members

    No registered users viewing this page.

×