Jump to content
PirateClub.hu
Sign in to follow this  
ninoel

Kétely (Doubt) 2008.1080p.10bit.BluRay.x265.6CH.Hun

Recommended Posts

Kétely (Doubt) 2008.1080p.10bit.BluRay.x265.6CH.Hun
szinkronizált, amerikai filmdráma, 104 perc, 1.7 Gb

doubt.jpg

1080p-10bit-3v.png

hevc_265_hu_2.jpg

1964-ben járunk a bronxi St. Nicholas iskolában. A vibráló egyéniségű, karizmatikus Flynn atya (Philip Seymour Hoffman) szeretné kicsit megváltoztatni az iskola túl szigorú szokásait, melyeket már réges-régen állított fel a vaskezű igazgatónő, Aloysius Beauvier nővér (Meryl Streep), aki a félelem és a szabályok erejében bízik. A politikai változások szele eléri a közösséget és az iskola a falai közé fogadja az első fekete diákot, Donald Millert. Amikor a reménytelien ártatlan James nővér (Amy Adams) megosztja az igazgatónővel észrevételét, miszerint Flynn atya túlságosan személyes érdeklődést mutat Miller iránt, az igazgatónő személyes keresztes hadjáratba kezd a pap ellen azzal a céllal, hogy eltüntesse őt az iskolából. Bár bizonyítékkal nem rendelkezik, Aloysius nővér a hite szerint száll szembe Flynn atyával.

RENDEZŐ: John Patrick Shanley
FORGATÓKÖNYVÍRÓ: John Patrick Shanley
ZENE: Howard Shore
SZEREPLŐK: Meryl Streep , Philip Seymour Hoffman , Amy Adams , Viola Davis , Carrie Preston , Alice Drummond , Susan Blommaert

Spoiler

 

Video
ID                          : 1
Format                      : HEVC
Format/Info                 : High Efficiency Video Coding
Format profile              : Main 10@L4@Main
Codec ID                    : V_MPEGH/ISO/HEVC
Duration                    : 1 h 43 min
Bit rate                    : 2 000 kb/s
Width                       : 1 920 pixels
Height                      : 1 040 pixels
Display aspect ratio        : 1.85:1
Frame rate mode             : Constant
Frame rate                  : 23.976 (24000/1001) FPS
Color space                 : YUV
Chroma subsampling          : 4:2:0
Bit depth                   : 10 bits
Bits/(Pixel*Frame)          : 0.042
Stream size                 : 1.45 GiB (93%)
Default                     : Yes
Forced                      : No

Audio
ID                          : 2
Format                      : AAC LC SBR
Format/Info                 : Advanced Audio Codec Low Complexity with Spectral Band Replication
Commercial name             : HE-AAC
Format settings             : Explicit
Codec ID                    : A_AAC-2
Duration                    : 1 h 43 min
Bit rate                    : 159 kb/s
Channel(s)                  : 6 channels
Channel layout              : C L R Ls Rs LFE
Sampling rate               : 48.0 kHz
Frame rate                  : 23.438 FPS (2048 SPF)
Compression mode            : Lossy
Stream size                 : 118 MiB (7%)
Language                    : Hungarian
Default                     : Yes
Forced                      : No

 

Hidden Content

    Give reaction or reply to this topic to see the hidden content.

 

  • Like 5
  • Thanks 3
  • Upvote 2

Share this post


Link to post
Share on other sites
Sign in to follow this  

  • Recently Browsing   0 members

    No registered users viewing this page.

×