Jump to content
PirateClub.hu
Sign in to follow this  
ninoel

Éjszakai játék (Game Night) 1080p.10bit.BluRay.x265.Hun

Recommended Posts

Éjszakai játék (Game Night) 1080p.10bit.BluRay.x265.Hun
szinkronizált, amerikai vígjáték, 100 perc, 1.7 Gb

game-night.jpg

1080p-10bit-3v.png

hevc_265_hu_2.jpg

Néhány házaspár hetente egyszer találkozik. A cél ártatlan mulatság: játszanak és élvezik. Ám az egyik este nem a tervek szerint zajlik. A játék komolyra fordul - valami nagy baj történik.
De ők nem hagyják magukat. Hiszen azért érkeztek, hogy jól érezzék magukat, ráadásul a rejtvényfejtésben is sok tapasztalatuk van: elhatározzák, hogy maguk oldják meg a titokzatos bűntényt.

RENDEZŐ: John Francis Daley
ÍRÓ: Mark Perez
ZENE: Cliff Martinez
SZEREPLŐK: Rachel McAdams , Michael C. Hall , Jason Bateman , Kyle Chandler , John Francis Daley , Jeffrey Wright , Jesse Plemons

Spoiler

 

Video
ID                          : 1
Format                      : HEVC
Format/Info                 : High Efficiency Video Coding
Format profile              : Main 10@L4@Main
Codec ID                    : V_MPEGH/ISO/HEVC
Duration                    : 1 h 40 min
Bit rate                    : 2 313 kb/s
Width                       : 1 920 pixels
Height                      : 800 pixels
Display aspect ratio        : 2.40:1
Frame rate mode             : Constant
Frame rate                  : 23.976 (24000/1001) FPS
Color space                 : YUV
Chroma subsampling          : 4:2:0
Bit depth                   : 10 bits
Bits/(Pixel*Frame)          : 0.063
Stream size                 : 1.62 GiB (97%)
Default                     : Yes
Forced                      : No

Audio
ID                          : 2
Format                      : AAC LC SBR
Format/Info                 : Advanced Audio Codec Low Complexity with Spectral Band Replication
Commercial name             : HE-AAC
Format settings             : Explicit
Codec ID                    : A_AAC-2
Duration                    : 1 h 40 min
Bit rate                    : 62.7 kb/s
Channel(s)                  : 2 channels
Channel layout              : L R
Sampling rate               : 48.0 kHz
Frame rate                  : 23.438 FPS (2048 SPF)
Compression mode            : Lossy
Stream size                 : 44.9 MiB (3%)
Language                    : Hungarian
Default                     : Yes
Forced                      : No

 

Hidden Content

    Give reaction or reply to this topic to see the hidden content.

 

  • Like 3
  • Thanks 7
  • Upvote 1

Share this post


Link to post
Share on other sites
Sign in to follow this  

  • Recently Browsing   0 members

    No registered users viewing this page.

×