Jump to content
PirateClub.hu
Sign in to follow this  
ninoel

Crank - Felpörögve (Crank) 2006.2160p.UHD.BluRay.x265.6CH.Hun

Recommended Posts

Crank - Felpörögve (Crank) 2006.2160p.UHD.BluRay.x265
szinkronizált, amerikai akciófilm, 88 perc, 2.2 Gb

crank.jpg

4k-ultra-hd_-_tv.png

hdr10x265.png

Chev Chelios telefonhívásra ébred. A telefonban közlik vele, hogy megmérgezték, s már csak egy órája van hátra. Cheliosnak rohannia kell az életéért. Csak úgy képes lelassítani a szívét leállító mérget, ha testében folyamatosan magasan tartja az adrenalin szintet! Ahogy az óra sebesen ketyeg, Chelios nagy zűrzavart okoz Los Angeles utcáin, s mindenkit elsöpör, aki az útjába mer állni. Meg kell mentenie szerelmét, ki kell cseleznie az őt üldöző fejvadászokat, s meg kell találnia az ellenanyagot is, mielőtt szíve végleg feladja.

Rendező: Mark Neveldine
Brian Taylor
Forgatókönyvíró: Mark Neveldine
Brian Taylor
Zeneszerző: Paul Haslinger
Operatőr: Adam Biddle

Szereplők:
Jason Statham - Chev Chelios
Amy Smart - Eve
Jose Pablo Cantillo Verona
Efren Ramirez - Kaylo
Dwight Yoakam - Miles

Spoiler

 

Video
ID                          : 1
Format                      : HEVC
Format/Info                 : High Efficiency Video Coding
Format profile              : Main 10@L5.1@High
HDR format                  : SMPTE ST 2086, HDR10 compatible
Codec ID                    : V_MPEGH/ISO/HEVC
Duration                    : 1 h 27 min
Bit rate                    : 3 256 kb/s
Width                       : 3 840 pixels
Height                      : 2 080 pixels
Display aspect ratio        : 1.85:1
Frame rate mode             : Constant
Frame rate                  : 23.976 (24000/1001) FPS
Color space                 : YUV
Chroma subsampling          : 4:2:0 (Type 2)
Bit depth                   : 10 bits
Bits/(Pixel*Frame)          : 0.017
Stream size                 : 1.99 GiB (95%)
Default                     : Yes
Forced                      : No
Color range                 : Limited
Color primaries             : BT.2020
Transfer characteristics    : PQ
Matrix coefficients         : BT.2020 non-constant
Mastering display color pri : Display P3
Mastering display luminance : min: 0.0001 cd/m2, max: 1000 cd/m2
Maximum Content Light Level : 732 cd/m2
Maximum Frame-Average Light : 213 cd/m2

Audio
ID                          : 2
Format                      : AAC LC SBR
Format/Info                 : Advanced Audio Codec Low Complexity with Spectral Band Replication
Commercial name             : HE-AAC
Format settings             : Explicit
Codec ID                    : A_AAC-2
Duration                    : 1 h 27 min
Bit rate                    : 159 kb/s
Channel(s)                  : 6 channels
Channel layout              : C L R Ls Rs LFE
Sampling rate               : 48.0 kHz
Frame rate                  : 23.438 FPS (2048 SPF)
Compression mode            : Lossy
Stream size                 : 99.5 MiB (5%)
Language                    : Hungarian
Default                     : Yes
Forced                      : No

 

Hidden Content

    Give reaction or reply to this topic to see the hidden content.

 

  • Like 5
  • Thanks 4

Share this post


Link to post
Share on other sites
Sign in to follow this  

  • Recently Browsing   0 members

    No registered users viewing this page.

×