Jump to content
PirateClub.hu
Sign in to follow this  
ninoel

Richard Jewell balladája (Richard Jewell) 2019.1080p.10bit.BluRay.x265.HunSub

Recommended Posts

Richard Jewell balladája (Richard Jewell) 2019.1080p.10bit.BluRay.x265.HunSub
magyar feliratos, amerikai dráma, 129 perc, 1.7 Gb

richjew.png

1080p-10bit-3v.png

hevc_265_hu_2.jpg

Richard Jewell több száz ember életét mentette meg, miközben a sajátját kockáztatta. Hős lett belőle, egy ország ünnepelte. Egy darabig. Nem sokkal később már az első számú közellenségként tekintett rá Amerika két legnagyobb hatalma: az igazságszolgáltatás és a sajtó.
Az átlagos kis biztonsági őr (Paul Walter Hauser), aki a szíve mélyén mindig zsaru szeretett volna lenni, az Atlantai Olimpián teljesített szolgálatot, amikor egy magára hagyott hátizsákot fedezett fel. A helyén volt az esze és a szíve, ezért sikerült idejében kiüríteni a környéket. Állítólag.
Az FBI azonban úgy gondolja, ő lehetett az elkövető, aki a saját hírnévért kockáztatta sok ember életét. A naiv, jó szándékú férfi és egy karrierje mélypontján lévő ügyvéd (Sam Rockwell) összefog, hogy bebizonyítsa az igazát.
Dávid harcba száll Góliát ellen…

RENDEZŐ: Clint Eastwood
ÍRÓ: Billy Ray
FORGATÓKÖNYVÍRÓ: Marie Brenner, Kent Alexander, Kevin Salwen
ZENE: Arturo Sandoval
SZEREPLŐK: Olivia Wilde , Kathy Bates , Sam Rockwell , Jon Hamm , Paul Walter Hauser , Ian Gomez , Kendrick Cross , Billy Slaughter

Spoiler

 

Video
ID                          : 1
Format                      : HEVC
Format/Info                 : High Efficiency Video Coding
Format profile              : Main 10@L5.1@High
Codec ID                    : V_MPEGH/ISO/HEVC
Duration                    : 2 h 10 min
Bit rate                    : 1 556 kb/s
Width                       : 1 920 pixels
Height                      : 808 pixels
Display aspect ratio        : 2.40:1
Frame rate mode             : Constant
Frame rate                  : 23.976 (24000/1001) FPS
Color space                 : YUV
Chroma subsampling          : 4:2:0
Bit depth                   : 10 bits
Bits/(Pixel*Frame)          : 0.042
Stream size                 : 1.42 GiB (91%)
Default                     : Yes
Forced                      : No
Color range                 : Limited
Color primaries             : BT.709
Transfer characteristics    : BT.709
Matrix coefficients         : BT.709

Audio
ID                          : 2
Format                      : AAC LC SBR
Format/Info                 : Advanced Audio Codec Low Complexity with Spectral Band Replication
Commercial name             : HE-AAC
Format settings             : Explicit
Codec ID                    : A_AAC-2
Duration                    : 2 h 10 min
Bit rate                    : 159 kb/s
Channel(s)                  : 6 channels
Channel layout              : C L R Ls Rs LFE
Sampling rate               : 48.0 kHz
Frame rate                  : 23.438 FPS (2048 SPF)
Compression mode            : Lossy
Stream size                 : 149 MiB (9%)
Language                    : English
Default                     : Yes
Forced                      : No

Text
ID                          : 3
Format                      : UTF-8
Codec ID                    : S_TEXT/UTF8
Codec ID/Info               : UTF-8 Plain Text
Duration                    : 2 h 10 min
Bit rate                    : 61 b/s
Count of elements           : 2075
Stream size                 : 58.9 KiB (0%)
Language                    : Hungarian
Default                     : Yes
Forced                      : No

 

Hidden Content

    Give reaction or reply to this topic to see the hidden content.

 

  • Like 2
  • Thanks 8
  • Upvote 2

Share this post


Link to post
Share on other sites
Sign in to follow this  

  • Recently Browsing   0 members

    No registered users viewing this page.

×