Jump to content
PirateClub.hu
Sign in to follow this  
ninoel

Szörny egyetem (Monsters University) 2013.2160p.UHD.WEB.x265.6CH

Recommended Posts

Szörny egyetem (Monsters University) 2013.2160p.UHD.WEB.x265.6CH
szinkronizált, amerikai animációs film, 110 perc, 2.1 Gb

szornyegyetem.jpg

4k-ultra-hd_-_tv.png

hdr10x265.png

Emlékeznek még Mike Wazowskira és James P. Sullivanre, vagyis Mike-ra és Sulleyre a két elválaszthatatlan jó barátra? 12 évvel ezelőtt, a Szörny Rt. című filmben találkozhattak velük. Most még messzebb utazunk vissza az időbe, egészen odaáig, amikor először találkoztak egymással az egyetemen. Az első pillanattól kezdve ki nem állhatták egymást, nemcsak a tulajdonságaik, hanem a külsejük sem különbözhetett volna jobban egymástól. Most kiderül, hogy Mike és Sulley milyen kalandok során váltak a legjobb barátokká.

Zeneszerző: Randy Newman
Forgatókönyvíró: Robert L. Baird
Daniel Gerson
Dan Scanlon
Rendező: Dan Scanlon

Spoiler

 

Video
ID                          : 1
Format                      : HEVC
Format/Info                 : High Efficiency Video Coding
Format profile              : Main 10@L5.1@High
HDR format                  : SMPTE ST 2086, HDR10 compatible
Codec ID                    : V_MPEGH/ISO/HEVC
Duration                    : 1 h 43 min
Bit rate                    : 2 645 kb/s
Width                       : 3 840 pixels
Height                      : 2 160 pixels
Display aspect ratio        : 16:9
Frame rate mode             : Constant
Frame rate                  : 23.976 (24000/1001) FPS
Color space                 : YUV
Chroma subsampling          : 4:2:0 (Type 2)
Bit depth                   : 10 bits
Bits/(Pixel*Frame)          : 0.013
Stream size                 : 1.92 GiB (94%)
Default                     : Yes
Forced                      : No
Color range                 : Limited
Color primaries             : BT.2020
Transfer characteristics    : PQ
Matrix coefficients         : BT.2020 non-constant
Mastering display color pri : Display P3
Mastering display luminance : min: 0.0001 cd/m2, max: 1000 cd/m2
Maximum Content Light Level : 1000 cd/m2
Maximum Frame-Average Light : 300 cd/m2

Audio
ID                          : 2
Format                      : AAC LC SBR
Format/Info                 : Advanced Audio Codec Low Complexity with Spectral Band Replication
Commercial name             : HE-AAC
Format settings             : Explicit
Codec ID                    : A_AAC-2
Duration                    : 1 h 43 min
Bit rate                    : 159 kb/s
Channel(s)                  : 6 channels
Channel layout              : C L R Ls Rs LFE
Sampling rate               : 48.0 kHz
Frame rate                  : 23.438 FPS (2048 SPF)
Compression mode            : Lossy
Stream size                 : 118 MiB (6%)
Language                    : Hungarian
Default                     : Yes
Forced                      : No

 

Hidden Content

    Give reaction or reply to this topic to see the hidden content.

 

  • Like 1
  • Thanks 4
  • Upvote 2

Share this post


Link to post
Share on other sites
Sign in to follow this  

  • Recently Browsing   0 members

    No registered users viewing this page.

×