Jump to content
PirateClub.hu
Sign in to follow this  
HardCoder

Vészhelyzetben (Kovi)

Recommended Posts

Hidden Content

    Give reaction or reply to this topic to see the hidden content.

Hidden Content

    Give reaction or reply to this topic to see the hidden content.

Idézés

Luxx videó, Kovi (Kovács István) film. Tartalom: Vészhelyzetbe kerül egy éjszakai bár: ha a bár tulajdonosa nem fizeti ki az adósságát, a hitelező banké lesz a mulató. A bárban dolgozó lányokon múlik, hogy megmarad-e a munkahelyük? Egy szexbombának kíváló ötletei vannak… Főszerepben: Mina Tímea, Seila Stone, Frank Gun, Mike Foster, Nick Lang

Spoiler

Format                         : MPEG-4
Format profile                 : Base Media
Codec ID                       : isom (isom/iso2/avc1/mp41)
File size                      : 377 MiB
Duration                       : 1 h 25 min
Overall bit rate               : 617 kb/s
Writing application            : Lavf58.20.100

Video
ID                             : 1
Format                         : AVC
Format/Info                    : Advanced Video Codec
Format profile                 : High@L2.1
Format settings                : CABAC / 4 Ref Frames
Format settings, CABAC         : Yes
Format settings, Reference fra : 4 frames
Codec ID                       : avc1
Codec ID/Info                  : Advanced Video Coding
Duration                       : 1 h 25 min
Bit rate                       : 550 kb/s
Width                          : 480 pixels
Height                         : 328 pixels
Display aspect ratio           : 3:2
Original display aspect ratio  : 3:2
Frame rate mode                : Constant
Frame rate                     : 25.000 FPS
Color space                    : YUV
Chroma subsampling             : 4:2:0
Bit depth                      : 8 bits
Scan type                      : Progressive
Bits/(Pixel*Frame)             : 0.140
Stream size                    : 334 MiB (89%)
Writing library                : x264 core 129
Encoding settings              : cabac=1 / ref=3 / deblock=1:0:0 / analyse=0x3:0x113 / me=hex / subme=7 / psy=1 / psy_rd=1.00:0.00 / mixed_ref=1 / me_range=16 / chroma_me=1 / trellis=1 / 8x8dct=1 / cqm=0 / deadzone=21,11 / fast_pskip=1 / chroma_qp_offset=-2 / threads=48 / lookahead_threads=5 / sliced_threads=0 / nr=0 / decimate=1 / interlaced=0 / bluray_compat=0 / constrained_intra=0 / bframes=3 / b_pyramid=2 / b_adapt=1 / b_bias=0 / direct=1 / weightb=1 / open_gop=0 / weightp=2 / keyint=300 / keyint_min=30 / scenecut=40 / intra_refresh=0 / rc_lookahead=40 / rc=2pass / mbtree=1 / bitrate=550 / ratetol=1.0 / qcomp=0.60 / qpmin=4 / qpmax=69 / qpstep=4 / cplxblur=20.0 / qblur=0.5 / vbv_maxrate=550 / vbv_bufsize=1800 / nal_hrd=none / ip_ratio=1.40 / aq=1:1.00
Color range                    : Limited
Color primaries                : BT.601 PAL
Transfer characteristics       : BT.709
Matrix coefficients            : BT.601
Codec configuration box        : avcC

Audio
ID                             : 2
Format                         : AAC LC
Format/Info                    : Advanced Audio Codec Low Complexity
Codec ID                       : mp4a-40-2
Duration                       : 1 h 25 min
Bit rate mode                  : Constant
Bit rate                       : 64.2 kb/s
Channel(s)                     : 2 channels
Channel layout                 : L R
Sampling rate                  : 48.0 kHz
Frame rate                     : 46.875 FPS (1024 SPF)
Compression mode               : Lossy
Stream size                    : 39.2 MiB (10%)
Default                        : Yes
Alternate group                : 1

Hidden Content

    Give reaction or reply to this topic to see the hidden content.

Share this post


Link to post
Share on other sites
Sign in to follow this  

  • Recently Browsing   0 members

    No registered users viewing this page.

×