Jump to content
PirateClub.hu
Sign in to follow this  
ninoel

Danger Close: The Battle of Long Tan.2019.1080p.10bit.BluRay.x265.HunSub

Recommended Posts

Danger Close: The Battle of Long Tan.2019.1080p.10bit.BluRay.x265.HunSub
magyar feliratos, ausztrál háborús dráma, akció, 118 perc, 2.1 Gb

dager-c.png

1080p-10bit-3v.png

hevc_265_hu_2.jpg

1966. augusztus 18-án Dél-Vietnamban a zuhogó esőben és sárban  Harry Smithnek és 108, többnyire tapasztaltan ausztráliai és új-zélandi katonájának az életéért kell harcolnia a vietkongok ellen. 

RENDEZŐ: Kriv Stenders
FORGATÓKÖNYVÍRÓ: Stuart Beattie, James Nicholas, Karel Segers
ZENE: Caitlin Yeo
SZEREPLŐK: Travis Fimmel , Nicholas Hamilton , Alexander England , Richard Roxburgh , Steve Peacocke , Anthony Hayes , Luke Bracey

Spoiler

 

Video
ID                          : 1
Format                      : HEVC
Format/Info                 : High Efficiency Video Coding
Format profile              : Main 10@L4@Main
Codec ID                    : V_MPEGH/ISO/HEVC
Duration                    : 1 h 58 min
Bit rate                    : 2 178 kb/s
Width                       : 1 920 pixels
Height                      : 800 pixels
Display aspect ratio        : 2.40:1
Frame rate mode             : Constant
Frame rate                  : 23.976 (24000/1001) FPS
Color space                 : YUV
Chroma subsampling          : 4:2:0
Bit depth                   : 10 bits
Bits/(Pixel*Frame)          : 0.059
Stream size                 : 1.80 GiB (91%)
Default                     : Yes
Forced                      : No

Audio
ID                          : 2
Format                      : AAC LC SBR
Format/Info                 : Advanced Audio Codec Low Complexity with Spectral Band Replication
Commercial name             : HE-AAC
Format settings             : Explicit
Codec ID                    : A_AAC-2
Duration                    : 1 h 58 min
Bit rate                    : 224 kb/s
Channel(s)                  : 6 channels
Channel layout              : C L R Ls Rs LFE
Sampling rate               : 48.0 kHz
Frame rate                  : 23.438 FPS (2048 SPF)
Compression mode            : Lossy
Delay relative to video     : 23 ms
Stream size                 : 190 MiB (9%)
Language                    : English
Default                     : Yes
Forced                      : No

Text
ID                          : 3
Format                      : UTF-8
Codec ID                    : S_TEXT/UTF8
Codec ID/Info               : UTF-8 Plain Text
Duration                    : 1 h 49 min
Bit rate                    : 43 b/s
Count of elements           : 1161
Stream size                 : 35.2 KiB (0%)
Language                    : Hungarian
Default                     : Yes
Forced                      : Yes

 

Hidden Content

    Give reaction or reply to this topic to see the hidden content.


 

  • Like 4
  • Thanks 3

Share this post


Link to post
Share on other sites
Sign in to follow this  

  • Recently Browsing   0 members

    No registered users viewing this page.

×