Jump to content
PirateClub.hu
Sign in to follow this  
ninoel

A Wall Street pillangói (Hustlers) 2019.1080p.10bit.BluRay.x265.MD.Hun.6CH.Eng

Recommended Posts

A Wall Street pillangói (Hustlers) 2019.1080p.10bit.BluRay.x265.MD.Hun.6CH.Eng
szinkronizált (mozis hang), amerikai krimi-dráma, 110 perc, 1.7 Gb

hust.jpg

 

1080p-10bit-3v.png

hevc_265_hu_2.jpg

„Íme, egy modern Robin Hood-történet: néhány sztriptíztáncosnő, akik ellopták a (főleg) gazdag, (általában) gusztustalan, és (szerintük) szánalmas férfiak pénzét, és odaadták, nos, saját maguknak.”*
Nehéz ellenállni a pénz csábításának. Főleg akkor, ha azt szinte tálcán kínálják fel… Ramona (Jennifer Lopez) New York egyik legmenőbb sztriptízbárjában dolgozik, ahol a Wall Street-i dúsgazdag bankárok naponta több százezer dollárt költenek el a szexi táncosokra. Töménytelen mennyiségű pénz cserél gazdát egy éjszaka alatt, aminek a lányok csak a töredékét látják viszont.
A táncosok megelégelik, hogy mindenki csak hasznot húz belőlük: Ramona irányításával összefognak, és az évszázad egyik legnagyobb csalását viszik véghez, amihez tehetős ügyfeleik hiszékenységét, és pénzzel teli bankkártyáját használják fel. Minden annyira egyszerűnek tűnik. Az üzlet beindul, a pillangók szárnyalnak, és közben dől a lé. De a pénzből sosem elég. És ahol a kapzsiság felüti a fejét, ott egyre nagyobb az esélye, hogy valaki elkövet egy apró hibát…

Szereplők
Constance Wu - Destiny
Julia Stiles - Jennifer
Lili Reinhart - Annabelle
Jennifer Lopez - Ramona
Madeline Brewer - Dawn
Keke Palmer - Mercedes

Rendező: Lorene Scafaria
Forgatókönyvíró: Lorene Scafaria
Producer: Jessica Elbaum
Will Ferrell
Adam McKay
Társproducer: Lorene Scafaria

Spoiler

 

Video
ID                          : 1
Format                      : HEVC
Format/Info                 : High Efficiency Video Coding
Format profile              : Main 10@L4@Main
Codec ID                    : V_MPEGH/ISO/HEVC
Duration                    : 1 h 50 min
Bit rate                    : 1 762 kb/s
Width                       : 1 920 pixels
Height                      : 808 pixels
Display aspect ratio        : 2.40:1
Frame rate mode             : Constant
Frame rate                  : 23.976 (24000/1001) FPS
Color space                 : YUV
Chroma subsampling          : 4:2:0
Bit depth                   : 10 bits
Bits/(Pixel*Frame)          : 0.047
Stream size                 : 1.36 GiB (86%)
Default                     : Yes
Forced                      : No

Audio #1
ID                          : 2
Format                      : AAC LC SBR
Format/Info                 : Advanced Audio Codec Low Complexity with Spectral Band Replication
Commercial name             : HE-AAC
Format settings             : Explicit
Codec ID                    : A_AAC-2
Duration                    : 1 h 50 min
Bit rate                    : 62.7 kb/s
Channel(s)                  : 2 channels
Channel layout              : L R
Sampling rate               : 48.0 kHz
Frame rate                  : 23.438 FPS (2048 SPF)
Compression mode            : Lossy
Stream size                 : 49.4 MiB (3%)
Language                    : Hungarian
Default                     : No
Forced                      : No

Audio #2
ID                          : 3
Format                      : AAC LC SBR
Format/Info                 : Advanced Audio Codec Low Complexity with Spectral Band Replication
Commercial name             : HE-AAC
Format settings             : Explicit
Codec ID                    : A_AAC-2
Duration                    : 1 h 50 min
Bit rate                    : 210 kb/s
Channel(s)                  : 6 channels
Channel layout              : C L R Ls Rs LFE
Sampling rate               : 48.0 kHz
Frame rate                  : 23.438 FPS (2048 SPF)
Compression mode            : Lossy
Delay relative to video     : 31 ms
Stream size                 : 166 MiB (10%)
Language                    : English
Default                     : Yes
Forced                      : No

 

Hidden Content

    Give reaction or reply to this topic to see the hidden content.

 

  • Like 3
  • Thanks 5
  • Upvote 2

Share this post


Link to post
Share on other sites
Sign in to follow this  

  • Recently Browsing   0 members

    No registered users viewing this page.

×