Jump to content
PirateClub.hu
Sign in to follow this  
ninoel

A kis kedvencek titkos élete 2.2019.2160p.10bit.HDR.BluRay.x265.6CH.Hun

Recommended Posts

A kis kedvencek titkos élete 2 (The Secret Life of Pets 2) 2019.2160p.10bit.HDR.BluRay.x265.6CH.Hun
szinkronizált, amerikai animációs vígjáték, kalandfilm, 86 perc, 2.2 Gb

tslop2.jpg

4k-ultra-hd-tv.png

hevc_265_hu_2.jpg

A 2016-os kasszasiker folytatása arról, mit művelnek kedvenceink minden nap, miután mi elmentünk munkába vagy iskolába. Az első rész produkálta az eredeti vígjátékok közül a legjobb nyitó bevételt, a nem animációs filmeket is beleértve.
A rendező ismét Chris Renaud (a Gru-filmek, Lorax), az író pedig Brian Lynch (Minyonok), a producer pedig az Illumination alapítója és nagyfőnöke, Chris Meledandri.

Rendező: Chris Renaud
Forgatókönyvíró: Brian Lynch
Producer: Janet Healy
Christopher Meledandri
Executive Producer: Brett Hoffman

Szinkronhang:
Széles Tamás
Szabó Győző
Jordán Adél
Peller Anna
Elek Ferenc
Csőre Gábor
Kálid Artúr

Spoiler

 

Video
ID                          : 1
Format                      : HEVC
Format/Info                 : High Efficiency Video Coding
Format profile              : Main 10@L5.1@Main
HDR format                  : SMPTE ST 2086, HDR10 compatible
Codec ID                    : V_MPEGH/ISO/HEVC
Duration                    : 1 h 26 min
Bit rate                    : 3 287 kb/s
Width                       : 3 840 pixels
Height                      : 2 080 pixels
Display aspect ratio        : 1.85:1
Frame rate mode             : Constant
Frame rate                  : 23.976 (24000/1001) FPS
Color space                 : YUV
Chroma subsampling          : 4:2:0 (Type 2)
Bit depth                   : 10 bits
Bits/(Pixel*Frame)          : 0.017
Stream size                 : 1.98 GiB (95%)
Default                     : Yes
Forced                      : No
Color range                 : Limited
Color primaries             : BT.2020
Transfer characteristics    : PQ
Matrix coefficients         : BT.2020 non-constant
Mastering display color pri : Display P3
Mastering display luminance : min: 0.0001 cd/m2, max: 1000 cd/m2
Maximum Content Light Level : 1000 cd/m2
Maximum Frame-Average Light : 412 cd/m2

Audio
ID                          : 2
Format                      : AAC LC SBR
Format/Info                 : Advanced Audio Codec Low Complexity with Spectral Band Replication
Commercial name             : HE-AAC
Format settings             : Explicit
Codec ID                    : A_AAC-2
Duration                    : 1 h 26 min
Bit rate                    : 159 kb/s
Channel(s)                  : 6 channels
Channel layout              : C L R Ls Rs LFE
Sampling rate               : 48.0 kHz
Frame rate                  : 23.438 FPS (2048 SPF)
Compression mode            : Lossy
Stream size                 : 97.7 MiB (5%)
Language                    : Hungarian
Default                     : Yes
Forced                      : No

 

Hidden Content

    Give reaction or reply to this topic to see the hidden content.

 

  • Like 8
  • Thanks 4
  • Upvote 1

Share this post


Link to post
Share on other sites
Sign in to follow this  

  • Recently Browsing   0 members

    No registered users viewing this page.

×