Jump to content
PirateClub.hu
Sign in to follow this  
ninoel

L'ecsó (Ratatouille) 2007.2160p.10bit.HDR.BluRay.x265.6CH.Hun

Recommended Posts

L'ecsó (Ratatouille) 2007.2160p.10bit.HDR.BluRay.x265.6CH.Hun
szinkronizált, amerikai animációs film, 111 perc, 2.2 Gb

rataouille-movie-cover.jpg

4k-ultra-hd-tv.png

hevc_265_hu_2.jpg

Remy, a patkány kölyökkora óta annak jegyében élt, hogy felnőve majd séfként dolgozhat az egyik párizsi étteremben. Hiszen a konyhai példaképe, Auguste Gusteau is megmondta, hogy "mindenki főzhet". A gyakorlat azonban mást mond. Remy a saját bőrén tapasztalja meg, milyen veszélyt jelent egy magafajtának, ha felfedezik a konyhában. Amikor úgy tűnik, hogy álma végképp szertefoszlik, onnan kap segítséget, ahonnan a legkevésbé sem várná: egy kétlábútól. Igaz barátra talál Linguiniban, az étterem szégyenlős, kirúgás szélén álló szemetes fiújában.

Producer: John Walker
Zeneszerző: Michael Giacchino
Forgatókönyvíró: Brad Bird
Jan Pinkava
Rendező: Brad Bird
Jan Pinkava

Szinkronhang:
Hevér Gábor
Markovics Tamás
F. Nagy Erika
Háda János

Spoiler

 

Video
ID                          : 1
Format                      : HEVC
Format/Info                 : High Efficiency Video Coding
Format profile              : Main 10@L5.1@Main
HDR format                  : SMPTE ST 2086, HDR10 compatible
Codec ID                    : V_MPEGH/ISO/HEVC
Duration                    : 1 h 51 min
Bit rate                    : 2 562 kb/s
Width                       : 3 840 pixels
Height                      : 1 608 pixels
Display aspect ratio        : 2.40:1
Frame rate mode             : Constant
Frame rate                  : 23.976 (24000/1001) FPS
Color space                 : YUV
Chroma subsampling          : 4:2:0 (Type 2)
Bit depth                   : 10 bits
Bits/(Pixel*Frame)          : 0.017
Stream size                 : 1.99 GiB (94%)
Default                     : Yes
Forced                      : No
Color range                 : Limited
Color primaries             : BT.2020
Transfer characteristics    : PQ
Matrix coefficients         : BT.2020 non-constant
Mastering display color pri : Display P3
Mastering display luminance : min: 0.0001 cd/m2, max: 1000 cd/m2
Maximum Content Light Level : 1000 cd/m2
Maximum Frame-Average Light : 250 cd/m2

Audio
ID                          : 2
Format                      : AAC LC SBR
Format/Info                 : Advanced Audio Codec Low Complexity with Spectral Band Replication
Commercial name             : HE-AAC
Format settings             : Explicit
Codec ID                    : A_AAC-2
Duration                    : 1 h 51 min
Bit rate                    : 159 kb/s
Channel(s)                  : 6 channels
Channel layout              : C L R Ls Rs LFE
Sampling rate               : 48.0 kHz
Frame rate                  : 23.438 FPS (2048 SPF)
Compression mode            : Lossy
Stream size                 : 126 MiB (6%)
Language                    : Hungarian
Default                     : Yes
Forced                      : No

 

Hidden Content

    Give reaction or reply to this topic to see the hidden content.

 

  • Like 9
  • Thanks 5

Share this post


Link to post
Share on other sites
Sign in to follow this  

  • Recently Browsing   0 members

    No registered users viewing this page.

×