Jump to content
PirateClub.hu
Sign in to follow this  
ninoel

El Camino: A Breaking Bad Movie.2019.1080p.10bit.WEBRip.x265.HunSub

Recommended Posts

El Camino: A Breaking Bad Movie.2019.1080p.10bit.WEBRip.x265.HunSub
magyar feliratos, amerikai dráma, akció film, 122 perc, 1.7 Gb

el-camino.jpg

1080p-10bit-3v.png

hevc_265_hu_2.jpg

Jesse Pinkman kalandjai tovább folytatódnak, miután továbbra is próbál megszökni a rendőrség elől.

RENDEZŐ: Vince Gilligan
FORGATÓKÖNYVÍRÓ: Vince Gilligan
ZENE: Dave Porter
SZEREPLŐK: Aaron Paul , Matt Jones , Jonathan Banks , Charles Baker

Spoiler

 

Video
ID                          : 1
Format                      : HEVC
Format/Info                 : High Efficiency Video Coding
Format profile              : Main 10@L4@Main
Codec ID                    : V_MPEGH/ISO/HEVC
Duration                    : 2 h 2 min
Bit rate                    : 1 671 kb/s
Width                       : 1 920 pixels
Height                      : 808 pixels
Display aspect ratio        : 2.40:1
Frame rate mode             : Constant
Frame rate                  : 24.000 FPS
Color space                 : YUV
Chroma subsampling          : 4:2:0
Bit depth                   : 10 bits
Bits/(Pixel*Frame)          : 0.045
Stream size                 : 1.43 GiB (90%)
Default                     : Yes
Forced                      : No

Audio
ID                          : 2
Format                      : AAC LC SBR
Format/Info                 : Advanced Audio Codec Low Complexity with Spectral Band Replication
Commercial name             : HE-AAC
Format settings             : Explicit
Codec ID                    : A_AAC-2
Duration                    : 2 h 2 min
Bit rate                    : 192 kb/s
Channel(s)                  : 6 channels
Channel layout              : C L R Ls Rs LFE
Sampling rate               : 48.0 kHz
Frame rate                  : 23.438 FPS (2048 SPF)
Compression mode            : Lossy
Delay relative to video     : 23 ms
Stream size                 : 168 MiB (10%)
Language                    : English
Default                     : Yes
Forced                      : No

Text #1
ID                          : 3
Format                      : UTF-8
Codec ID                    : S_TEXT/UTF8
Codec ID/Info               : UTF-8 Plain Text
Duration                    : 2 h 1 min
Bit rate                    : 35 b/s
Count of elements           : 1168
Stream size                 : 31.8 KiB (0%)
Language                    : Czech
Default                     : No
Forced                      : No

Text #2
ID                          : 4
Format                      : UTF-8
Codec ID                    : S_TEXT/UTF8
Codec ID/Info               : UTF-8 Plain Text
Duration                    : 2 h 1 min
Bit rate                    : 36 b/s
Count of elements           : 1177
Stream size                 : 32.3 KiB (0%)
Language                    : Hungarian
Default                     : Yes
Forced                      : Yes

 

 

Hidden Content

    Give reaction or reply to this topic to see the hidden content.


 

  • Like 7
  • Thanks 1
  • Upvote 1

Share this post


Link to post
Share on other sites
Sign in to follow this  

  • Recently Browsing   0 members

    No registered users viewing this page.

×