Jump to content
PirateClub.hu

Carnivale - A vándorcirkusz.2003.720p.10bit.WEBRip.x265.Hu 1.T 2.T évad


ninoel
 Share

Recommended Posts

Carnivale - A vándorcirkusz.2003.720p.10bit.WEBRip.x265.Hu 1.T évad
szinkronizált, amerikai fantasy, dráma, thriller sorozat, 60 perc, 318/404 Mb

carnivale-se1.jpg

720p_10bit.png

hevc_265_hu_2.jpg

A történet az 1930-as évek Amerikájában játszódik Oklahomában. Egy utazó mutatványos cirkusz életét követhetjük nyomon, Amerika egyik nehéz történelmi korszakában, a Nagy Gazdasági Válság korában a népiesen Dust Bowl-nak (kb. Homokos-medence) elnevezett sivatagosodó környéken. A cirkuszban olyan titokzatos látnivalók vannak, amik a kor emberét elkápráztatták és átverték: sziámi ikrek, tisztánlátó asszony és kómában fekvő médium, kártyavető, jövendőmondó és gyógyító, artisták.

RENDEZŐ: Rodrigo García, Jeremy Podeswa
FORGATÓKÖNYVÍRÓ: Daniel Knauf, Dawn Prestwich, William Schmidt
ZENE: Jeff Beal

SZEREPLŐK: Clancy Brown , Jimmi Simpson , Amy Madigan , Robert Knepper , Linda Hunt , Matt McCoy , Adrienne Barbeau , Toby Huss 

Spoiler

 

Video
ID                          : 1
Format                      : HEVC
Format/Info                 : High Efficiency Video Coding
Format profile              : Main 10@L3.1@Main
Codec ID                    : V_MPEGH/ISO/HEVC
Duration                    : 57 min 39 s
Bit rate                    : 865 kb/s
Width                       : 1 280 pixels
Height                      : 720 pixels
Display aspect ratio        : 16:9
Frame rate mode             : Constant
Frame rate                  : 23.976 (24000/1001) FPS
Color space                 : YUV
Chroma subsampling          : 4:2:0
Bit depth                   : 10 bits
Bits/(Pixel*Frame)          : 0.039
Stream size                 : 357 MiB (93%)
Default                     : Yes
Forced                      : No
Color range                 : Limited
Color primaries             : BT.709
Transfer characteristics    : BT.709
Matrix coefficients         : BT.709

Audio
ID                          : 2
Format                      : AAC LC SBR
Format/Info                 : Advanced Audio Codec Low Complexity with Spectral Band Replication
Commercial name             : HE-AAC
Format settings             : Explicit
Codec ID                    : A_AAC-2
Duration                    : 57 min 39 s
Bit rate                    : 62.7 kb/s
Channel(s)                  : 2 channels
Channel layout              : L R
Sampling rate               : 48.0 kHz
Frame rate                  : 23.438 FPS (2048 SPF)
Compression mode            : Lossy
Stream size                 : 25.9 MiB (7%)
Language                    : Hungarian
Default                     : Yes
Forced                      : No

 

https://data.hu/get/12082314/crnvl11-6.part01.rar
https://data.hu/get/12082313/crnvl11-6.part02.rar
https://data.hu/get/12082312/crnvl11-6.part03.rar
https://data.hu/get/12082310/crnvl11-6.part04.rar
https://data.hu/get/12082311/crnvl11-6.part05.rar
https://data.hu/get/12082308/crnvl11-6.part06.rar
https://data.hu/get/12082305/crnvl11-6.part07.rar
https://data.hu/get/12082306/crnvl11-6.part08.rar
https://data.hu/get/12082304/crnvl11-6.part09.rar
https://data.hu/get/12082303/crnvl11-6.part10.rar
https://data.hu/get/12082302/crnvl11-6.part11.rar
https://data.hu/get/12082337/crnvl17-12.part01.rar
https://data.hu/get/12082335/crnvl17-12.part02.rar
https://data.hu/get/12082336/crnvl17-12.part03.rar
https://data.hu/get/12082333/crnvl17-12.part04.rar
https://data.hu/get/12082334/crnvl17-12.part05.rar
https://data.hu/get/12082332/crnvl17-12.part06.rar
https://data.hu/get/12082331/crnvl17-12.part07.rar
https://data.hu/get/12082330/crnvl17-12.part08.rar
https://data.hu/get/12082329/crnvl17-12.part09.rar
https://data.hu/get/12082328/crnvl17-12.part10.rar
https://data.hu/get/12082327/crnvl17-12.part11.rar

 

2. évad

carnivale-se2.jpg

 

https://data.hu/get/12087786/se02.part01.rar
https://data.hu/get/12087788/se02.part02.rar
https://data.hu/get/12409274/se02.part03.rar
https://data.hu/get/12087785/se02.part04.rar
https://data.hu/get/12087789/se02.part05.rar
https://data.hu/get/12087783/se02.part06.rar
https://data.hu/get/12087782/se02.part07.rar
https://data.hu/get/12087781/se02.part08.rar
https://data.hu/get/12087779/se02.part09.rar
https://data.hu/get/12087778/se02.part10.rar
https://data.hu/get/12087800/se02.part11.rar
https://data.hu/get/12087801/se02.part12.rar
https://data.hu/get/12087798/se02.part13.rar
https://data.hu/get/12087799/se02.part14.rar
https://data.hu/get/12087795/se02.part15.rar
https://data.hu/get/12087793/se02.part16.rar
https://data.hu/get/12087792/se02.part17.rar
https://data.hu/get/12087794/se02.part18.rar
https://data.hu/get/12087791/se02.part19.rar

 

  • Like 9
  • Thanks 6
  • Upvote 3
Link to comment
Share on other sites

  • 6 months later...
  • 3 weeks later...
 Share

  • Recently Browsing   0 members

    • No registered users viewing this page.
×
×
  • Create New...