Ugrás a tartalomhoz

Fotó

Volt egyszer egy Venice (Once Upon a Time in Venice) 2017 WEBDL.HUN.cinema.zsozso1.06 GB / magyarul beszélő, amerikai akció-vígjáték / euroshare

- - - - -

  • Hozzászólás írásához be kell jelentkezni!
Még nem érkezett válasz erre a témára

#1
hegyiwarez86

hegyiwarez86

    Citromdí­jas

  • Power User
  • PipaPipaPipa
  • 103
  • 268 Hozzászólás
  • 383 köszönet
  • Offline







2569226-20170619-eu026M.jpg





Volt egyszer egy Venice
/Once Upon a Time in Venice/

magyarul beszélő, amerikai akció-vígjáték, 94 perc, 2017

Rendező: Robb Cullen,Mark Cullen
Forgatókönyvíró: Mark Cullen,Robb Cullen
Zene: Jeff Cardoni

Szereplők:
Bruce Willis
Jason Momoa
John Goodman
Famke Janssen
Adam Goldberg
Kal Penn
Elisabeth Röhm

Leírás:
Steve Ford magánnyomozó élete teljesen összeomlik, amikor a hírhedt alvilági banda ellopja imádott kutyáját, Buddyt. Amennyiben viszont szeretné látni, végre kell hajtania mindazt az őrültséget, amelyet a banda kér, így kénytelen-kelletlen bele kell keverednie egy drogügyletbe. A helyzetet azt sem könnyíti, hogy közben egy bosszúszomjas szamoai testvérpár, egy uzsorás ostoba bérencei és még számos kétes fazon is a nyomában van. Steve azonban annyira bepöccen, hogy bármire hajlandó azért, hogy visszaszerezhesse szeretett kutyáját.





2569227-20170619-SFKNeN.jpg
2569228-20170619-l6fdmy.jpg
2569229-20170619-OpZ0Fb.jpg




Format                           : AVI
Format/Info                      : Audio Video Interleave
Format profile                   : OpenDML
File size                        : 1.07 GiB
Duration                         : 1h 34mn
Overall bit rate                 : 1 626 Kbps
Writing application              : MEncoder SVN-r33883(20110719-gcc4.5.2)
Writing library                  : MPlayer

Video
ID                               : 0
Format                           : MPEG-4 Visual
Format profile                   : Advanced Simple@L5
Format settings, BVOP            : 2
Format settings, QPel            : No
Format settings, GMC             : No warppoints
Format settings, Matrix          : Default (H.263)
Codec ID                         : XVID
Codec ID/Hint                    : XviD
Duration                         : 1h 34mn
Bit rate                         : 1 482 Kbps
Width                            : 1 160 pixels
Height                           : 480 pixels
Display aspect ratio             : 2.40:1
Frame rate                       : 24.000 fps
Color space                      : YUV
Chroma subsampling               : 4:2:0
Bit depth                        : 8 bits
Scan type                        : Progressive
Compression mode                 : Lossy
Bits/(Pixel*Frame)               : 0.111
Stream size                      : 997 MiB (91%)
Writing library                  : XviD 1.2.1 (UTC 2008-12-04)

Audio
ID                               : 1
Format                           : MPEG Audio
Format version                   : Version 1
Format profile                   : Layer 3
Mode                             : Joint stereo
Mode extension                   : MS Stereo
Codec ID                         : 55
Codec ID/Hint                    : MP3
Duration                         : 1h 34mn
Bit rate mode                    : Constant
Bit rate                         : 128 Kbps
Channel(s)                       : 2 channels
Sampling rate                    : 44.1 KHz
Compression mode                 : Lossy
Delay relative to video          : 42ms
Stream size                      : 86.1 MiB (8%)
Alignment                        : Aligned on interleaves
Interleave, duration             : 26 ms (0.63 video frame)
Interleave, preload duration     : 522 ms
Writing library                  : LAME3.98.4ŞŞŞŞŞŞŞŞŞŞ




LETÖLTÉS:


Kérlek Jelentkezz be vagy Regisztrálj hogy lásd a rejtett tartalmat.








 
  • 1

Megköszönte 5 Felhasználó:
kochubey , toll , motto11 , etyien gróf. , ettore62



0 felhasználó olvassa ezt a témát.

0 felhasználó, 0 vendég, 0 anonim felhasználó