Jump to content
PirateClub.hu
Sign in to follow this  
ninoel

Az igazság ára (The Lincoln Lawyer) 2022.1080p.10bit.WEB-DL.6CH.x265.Hun T évad

Recommended Posts

Az igazság ára (The Lincoln Lawyer) 2022.1080p.10bit.WEB-DL.6CH.x265 T évad
szinkronizált, amerikai dráma, krimisorozat, 50 perc, 560 Mb/rész

lincoln.jpg

1080p-10bit-3v.png

hevc_265_hu_2.jpg

A Michael Connelly regényei alapján készült sorozatban egy rendhagyó, idealista ügyvéd az autója hátsó ülésén rendezte be az irodáját.

RENDEZŐ: David Grossman, Erin Feeley
ÍRÓ: Michael Connelly
FORGATÓKÖNYVÍRÓ: Ted Humphrey, David E. Kelley
ZENE: David Buckley
SZEREPLŐK: Neve Campbell, Jazz Raycole, Angus Sampson, Becki Newton, Lamont Thompson, Christopher Gorham, Jon Tenney

Spoiler

 

Video
ID                          : 1
Format                      : HEVC
Format/Info                 : High Efficiency Video Coding
Format profile              : Main 10@L4@High
Codec ID                    : V_MPEGH/ISO/HEVC
Duration                    : 48 min 43 s
Bit rate                    : 1 249 kb/s
Width                       : 1 920 pixels
Height                      : 1 080 pixels
Display aspect ratio        : 16:9
Frame rate mode             : Constant
Frame rate                  : 23.976 (24000/1001) FPS
Color space                 : YUV
Chroma subsampling          : 4:2:0
Bit depth                   : 10 bits
Bits/(Pixel*Frame)          : 0.025
Stream size                 : 435 MiB (85%)
Default                     : Yes
Forced                      : No

Audio
ID                          : 2
Format                      : AC-3
Format/Info                 : Audio Coding 3
Commercial name             : Dolby Digital
Codec ID                    : A_AC3
Duration                    : 48 min 43 s
Bit rate mode               : Constant
Bit rate                    : 224 kb/s
Channel(s)                  : 6 channels
Channel layout              : L R C LFE Ls Rs
Sampling rate               : 48.0 kHz
Frame rate                  : 31.250 FPS (1536 SPF)
Compression mode            : Lossy
Stream size                 : 78.1 MiB (15%)
Language                    : Hungarian
Service kind                : Complete Main
Default                     : Yes
Forced                      : No

 

Hidden Content

    Give reaction or reply to this topic to see the hidden content.

 

  • Like 2
  • Thanks 2

Share this post


Link to post
Share on other sites
Sign in to follow this  

  • Recently Browsing   0 members

    No registered users viewing this page.

×