Jump to content
PirateClub.hu
Sign in to follow this  
ninoel

Az operaház fantomja (The Phantom of the Opera) 2004.2160p.10bit.HDR.BluRay.6CH.HunSub

Recommended Posts

Az operaház fantomja (The Phantom of the Opera) 2004.2160p.10bit.HDR.BluRay.6CH.HunSub
magyar feliratos, amerikai-angol musical, 135 perc, 3.3 Gb

the-phantom.jpg

4k-ultra-hd_-_tv.png

hdr10x265.png

Christine Daae (Emmy Rossum), a fiatal szopránénekesnő a párizsi Opera Populaire tagja. Egy napon titokzatos pártfogóra talál, s azt hiszi, hogy ő a "Muzsika Angyala", akiről korán meghalt apja beszélt neki. Az idegen azonban nem az Angyal, hanem a rejtélyes Fantom (Gerard Butler), aki rettegésben tartja a színház művészeit. Csak Madame Giry, a balett-tanárnő (Miranda Richardson) tudja, hogy aki a színházépület katakombái között rejtőzik, valójában egy torz arcú zenei géniusz.
Az operaház temperamentumos dívája, La Carlotta (Minnie Driver) az új előadás próbáinak közepén távozik, a színház menedzserei pedig nem tehetnek mást, mint az újonc Christine-t állítják helyette a rivaldafénybe. A varázslatos bemutatkozás nemcsak a közönséget bűvöli el, hanem a Fantomot is. Ezentúl csak a lány érdekli és mindent elkövet, hogy pártfogoltja az opera új csillaga legyen. Szereti és bátorítja, egyengeti a karrierjét, de nem ő az egyetlen férfi, aki felfigyelt a fiatal énekesnőre. A színház gazdag patrónusa, Raoul de Chagny (Patrick Wilson) is körüludvarolja a lányt szerelmével. Christine-t rabul ejti ugyan karizmatikus és rejtőzködő mentora, de kétségkívül jobban vonzódik a rámenős és jóképű Raoulhoz, ami felbőszíti Fantomot.

Szereplők:
Gerard Butler - Fantom
Emmy Rossum - Christine
Patrick Wilson - Raoul
Miranda Richardson - Madame Giry
Minnie Driver - Carlotta
Ciarán Hinds - Firmin
Simon Callow - Andre

Rendező: Joel Schumacher
Operatőr: John Mathieson
Jelmeztervező: Alexandra Byrne
Producer: Andrew Lloyd Webber
Zene: Andrew Lloyd Webber

Spoiler

 

Video
ID                          : 1
Format                      : HEVC
Format/Info                 : High Efficiency Video Coding
Format profile              : Main 10@L5.1@Main
HDR format                  : SMPTE ST 2086, HDR10 compatible
Codec ID                    : V_MPEGH/ISO/HEVC
Duration                    : 2 h 21 min
Bit rate                    : 3 042 kb/s
Width                       : 3 840 pixels
Height                      : 1 552 pixels
Display aspect ratio        : 2.474
Frame rate mode             : Constant
Frame rate                  : 23.976 (24000/1001) FPS
Color space                 : YUV
Chroma subsampling          : 4:2:0 (Type 2)
Bit depth                   : 10 bits
Bits/(Pixel*Frame)          : 0.021
Stream size                 : 3.00 GiB (95%)
Default                     : Yes
Forced                      : No
Color range                 : Limited
Color primaries             : BT.2020
Transfer characteristics    : PQ
Matrix coefficients         : BT.2020 non-constant
Mastering display color pri : BT.2020
Mastering display luminance : min: 0.0050 cd/m2, max: 1000 cd/m2
Maximum Content Light Level : 1000 cd/m2
Maximum Frame-Average Light : 300 cd/m2

Audio
ID                          : 2
Format                      : AAC LC SBR
Format/Info                 : Advanced Audio Codec Low Complexity with Spectral Band Replication
Commercial name             : HE-AAC
Format settings             : Explicit
Codec ID                    : A_AAC-2
Duration                    : 2 h 21 min
Bit rate                    : 159 kb/s
Channel(s)                  : 6 channels
Channel layout              : C L R Ls Rs LFE
Sampling rate               : 48.0 kHz
Frame rate                  : 23.438 FPS (2048 SPF)
Compression mode            : Lossy
Stream size                 : 160 MiB (5%)
Language                    : English
Default                     : Yes
Forced                      : No

Text
ID                          : 3
Format                      : UTF-8
Codec ID                    : S_TEXT/UTF8
Codec ID/Info               : UTF-8 Plain Text
Duration                    : 2 h 11 min
Bit rate                    : 36 b/s
Count of elements           : 1210
Stream size                 : 35.4 KiB (0%)
Language                    : Hungarian
Default                     : Yes
Forced                      : Yes

 

Hidden Content

    Give reaction or reply to this topic to see the hidden content.


 

  • Like 2
  • Thanks 5

Share this post


Link to post
Share on other sites
Sign in to follow this  

  • Recently Browsing   0 members

    No registered users viewing this page.

×