Jump to content
PirateClub.hu
Sign in to follow this  
ninoel

Halál a Níluson (Death on the Nile) 2022.2160p.10bit.HDR.DV.BluRay.6CH.x265.Hun

Recommended Posts

Halál a Níluson (Death on the Nile) 2022.2160p.10bit.HDR.DV.BluRay.6CH.x265
szinkronizált, amerikai krimi-dráma, 126 perc, 4 Gb

death-of-the-nil.jpg

4k-ultra-hd_-_tv.png

hdr10x265.png

A belga detektív, Hercule Poirot egyiptomi vakációja egy folyami gőzösön ijesztő fordulatot vesz, amikor a hajón utazó álompár idilli nászútját gyilkosság zavarja meg. A végeláthatatlan sivatagban, a gízai piramisok lábánál kibontakozó rejtélyben a féktelen szenvedély és az őrjítő féltékenység éppúgy főszerepet játszik, mint a változatos hátterű és kifogástalanul öltözött utazók, akik sötét fordulatok elé néznek, mielőtt szembesülnek a végső, döbbenetes megoldással.

RENDEZŐ: Kenneth Branagh
ÍRÓ: Agatha Christie
FORGATÓKÖNYVÍRÓ: Michael Green
ZENE: Patrick Doyle
SZEREPLŐK: Gal Gadot, Kenneth Branagh, Annette Bening, Armie Hammer, Rose Leslie, Russell Brand, Sophie Okonedo, Letitia Wright

Spoiler

 

Video
ID                          : 1
Format                      : HEVC
Format/Info                 : High Efficiency Video Coding
Format profile              : Main 10@L5@High
HDR format                  : Dolby Vision, Version 1.0, dvhe.08.06, BL+RPU, HDR10 compatible / SMPTE ST 2086, HDR10 compatible
Codec ID                    : V_MPEGH/ISO/HEVC
Duration                    : 2 h 6 min
Bit rate                    : 3 888 kb/s
Width                       : 3 840 pixels
Height                      : 2 160 pixels
Display aspect ratio        : 16:9
Frame rate mode             : Constant
Frame rate                  : 23.976 (24000/1001) FPS
Color space                 : YUV
Chroma subsampling          : 4:2:0 (Type 2)
Bit depth                   : 10 bits
Bits/(Pixel*Frame)          : 0.020
Stream size                 : 3.45 GiB (92%)
Default                     : Yes
Forced                      : No
Color range                 : Limited
Color primaries             : BT.2020
Transfer characteristics    : PQ
Matrix coefficients         : BT.2020 non-constant
Mastering display color pri : Display P3
Mastering display luminance : min: 0.0050 cd/m2, max: 1000 cd/m2

Audio
ID                          : 2
Format                      : AC-3
Format/Info                 : Audio Coding 3
Commercial name             : Dolby Digital
Codec ID                    : A_AC3
Duration                    : 2 h 6 min
Bit rate mode               : Constant
Bit rate                    : 320 kb/s
Channel(s)                  : 6 channels
Channel layout              : L R C LFE Ls Rs
Sampling rate               : 48.0 kHz
Frame rate                  : 31.250 FPS (1536 SPF)
Compression mode            : Lossy
Stream size                 : 291 MiB (8%)
Language                    : Hungarian
Service kind                : Complete Main
Default                     : Yes
Forced                      : No

Text
ID                          : 3
Format                      : UTF-8
Codec ID                    : S_TEXT/UTF8
Codec ID/Info               : UTF-8 Plain Text
Duration                    : 1 h 56 min
Bit rate                    : 1 b/s
Count of elements           : 48
Stream size                 : 1.30 KiB (0%)
Title                       : Forced
Language                    : Hungarian
Default                     : Yes
Forced                      : Yes

 

Hidden Content

    Give reaction or reply to this topic to see the hidden content.

 

  • Like 2
  • Thanks 9

Share this post


Link to post
Share on other sites
Sign in to follow this  

  • Recently Browsing   0 members

    No registered users viewing this page.

×