Jump to content
PirateClub.hu
Sign in to follow this  
ninoel

Batman (The Batman) 2022.2160p.10bit.HDR.DV.WEBRip.6CH.x265.HunSub

Recommended Posts

Batman (The Batman) 2022.2160p.10bit.HDR.DV.WEBRip.6CH.x265.HunSub
magyar feliratos, amerikai krimi-dráma, akciófilm, 176 perc, 4.2 gb

batman-2022.jpg

4k-ultra-hd_-_tv.png

hdr10x265.png

Batman (Robert Pattinson) már két éve rója Gotham City utcáit, és üldözi a város gonosztevőit – így hát egyre mélyebbre merül a sikátorok sötétségébe. Már alig néhány emberben bízhat: mindenfelől korrupt hivatalnokok és romlott nagymenők veszik körül. csupán Alfred Pennyworth-szel (Andy Serkis) és Jame Gordon hadnaggyal (Jeffrey Wright) oszthatja meg a titkait. Egyedül maradt: rajta kívül nincs más, aki bosszút állhatna a város lakóinak sérelmeiért.
Egy gyilkos épp Gotham elitjét veszi célba, és a szadista machinációi után hátrahagyott titokzatos nyomok a világ legnagyobb detektívjét a város alvilágába vezetik. Ott találkozik Selina Kyle-lal, vagyis Macskanővel (Zoë Kravitz), Oswald Cobblepottal, a Pingvinnel (Colin Farrell), Carmine Falcone-nal (John Turturro) és Edward Nashtonnal, Rébusszal (Paul Dano). A bizonyítékok azonban a saját otthona felé vezetik, és minél jobban szűkül a gyanúsítottak köre, annál félelmetesebbé válik.
Batmannek új szövetségeket kell kötnie, le kell lepleznie az igazi bűnöst, és meg kell szabadítania Gothamet a hatalmaskodás és a korrupció pestisétől.
Az egyik legmenőbb képregényhős fantasztikus szereposztással tér vissza, és közben látványosabb, izgalmasabb és keményebb, mint valaha.

RENDEZŐ: Matt Reeves
ÍRÓ: Matt Reeves, Peter Craig
FORGATÓKÖNYVÍRÓ: Bill Finger, Bob Kane
ZENE: Michael Giacchino
SZEREPLŐK: Robert Pattinson, Zoë Kravitz, Paul Dano, Colin Farrell, Andy Serkis, John Turturro, Jeffrey Wright, Peter Sarsgaard

Spoiler

 

Video
ID                          : 1
Format                      : HEVC
Format/Info                 : High Efficiency Video Coding
Format profile              : Main 10@L5@High
HDR format                  : Dolby Vision, Version 1.0, dvhe.08.06, BL+RPU, HDR10 compatible / SMPTE ST 2086, HDR10 compatible
Codec ID                    : V_MPEGH/ISO/HEVC
Duration                    : 2 h 56 min
Bit rate                    : 2 959 kb/s
Width                       : 3 840 pixels
Height                      : 2 160 pixels
Display aspect ratio        : 16:9
Frame rate mode             : Constant
Frame rate                  : 23.976 (24000/1001) FPS
Color space                 : YUV
Chroma subsampling          : 4:2:0
Bit depth                   : 10 bits
Bits/(Pixel*Frame)          : 0.015
Stream size                 : 3.64 GiB (93%)
Default                     : Yes
Forced                      : No
Color range                 : Limited
Color primaries             : BT.2020
Transfer characteristics    : PQ
Matrix coefficients         : BT.2020 non-constant
Mastering display color pri : Display P3
Mastering display luminance : min: 0.0001 cd/m2, max: 1000 cd/m2
Maximum Content Light Level : 413 cd/m2
Maximum Frame-Average Light : 65 cd/m2

Audio
ID                          : 2
Format                      : AAC LC SBR
Format/Info                 : Advanced Audio Codec Low Complexity with Spectral Band Replication
Commercial name             : HE-AAC
Format settings             : Explicit
Codec ID                    : A_AAC-2
Duration                    : 2 h 56 min
Bit rate                    : 207 kb/s
Channel(s)                  : 6 channels
Channel layout              : C L R Ls Rs LFE
Sampling rate               : 48.0 kHz
Frame rate                  : 23.438 FPS (2048 SPF)
Compression mode            : Lossy
Delay relative to video     : 23 ms
Stream size                 : 260 MiB (7%)
Language                    : English
Default                     : Yes
Forced                      : No

Text
ID                          : 3
Format                      : UTF-8
Codec ID                    : S_TEXT/UTF8
Codec ID/Info               : UTF-8 Plain Text
Duration                    : 2 h 54 min
Bit rate                    : 38 b/s
Count of elements           : 1451
Stream size                 : 48.9 KiB (0%)
Title                       : Hungarian
Language                    : Hungarian
Default                     : No
Forced                      : No

 

Hidden Content

    Give reaction or reply to this topic to see the hidden content.

 

  • Like 1
  • Thanks 4

Share this post


Link to post
Share on other sites
Sign in to follow this  

  • Recently Browsing   0 members

    No registered users viewing this page.

×