Jump to content
PirateClub.hu
Sign in to follow this  
ninoel

Rémálmok sikátora (Nightmare Alley) 2021.2160p.10bit.HDR.BluRay.6CH.x265.Hun

Recommended Posts

Rémálmok sikátora (Nightmare Alley) 2021.2160p.10bit.HDR.BluRay.6CH.x265
szinkronizált, amerikai misztikus thriller, filmdráma, 150 perc, 3.8 Gb

nightmare.jpg

4k-ultra-hd_-_tv.png

hdr10x265.png

Az utazócirkusznál dolgozó Stanton Carlisle becsvágyó férfi, aki néhány jól megválasztott szóval tehetségesen manipulálja az embereket. Találkozik egy pszichiáternővel, akiről rövidesen kiderül, hogy talán még nála is veszedelmesebb.

RENDEZŐ: Guillermo del Toro
ÍRÓ: William Lindsay Gresham
FORGATÓKÖNYVÍRÓ: Kim Morgan, Guillermo del Toro
ZENE: Alexandre Desplat
SZEREPLŐK: Bradley Cooper, Cate Blanchett, Willem Dafoe, Rooney Mara, Toni Collette, Ron Perlman, David Strathairn

Spoiler

 

Video
ID                          : 1
Format                      : HEVC
Format/Info                 : High Efficiency Video Coding
Format profile              : Main 10@L5@Main
HDR format                  : SMPTE ST 2086, HDR10 compatible
Codec ID                    : V_MPEGH/ISO/HEVC
Duration                    : 2 h 30 min
Bit rate                    : 3 124 kb/s
Width                       : 3 840 pixels
Height                      : 2 080 pixels
Display aspect ratio        : 1.85:1
Frame rate mode             : Constant
Frame rate                  : 23.976 (24000/1001) FPS
Color space                 : YUV
Chroma subsampling          : 4:2:0 (Type 2)
Bit depth                   : 10 bits
Bits/(Pixel*Frame)          : 0.016
Stream size                 : 3.28 GiB (93%)
Default                     : Yes
Forced                      : No
Color range                 : Limited
Color primaries             : BT.2020
Transfer characteristics    : PQ
Matrix coefficients         : BT.2020 non-constant
Mastering display color pri : Display P3
Mastering display luminance : min: 0.0050 cd/m2, max: 1000 cd/m2

Audio
ID                          : 2
Format                      : AC-3
Format/Info                 : Audio Coding 3
Commercial name             : Dolby Digital
Codec ID                    : A_AC3
Duration                    : 2 h 30 min
Bit rate mode               : Constant
Bit rate                    : 224 kb/s
Channel(s)                  : 6 channels
Channel layout              : L R C LFE Ls Rs
Sampling rate               : 48.0 kHz
Frame rate                  : 31.250 FPS (1536 SPF)
Compression mode            : Lossy
Stream size                 : 241 MiB (7%)
Language                    : Hungarian
Service kind                : Complete Main
Default                     : Yes
Forced                      : No

Text
ID                          : 3
Format                      : UTF-8
Codec ID                    : S_TEXT/UTF8
Codec ID/Info               : UTF-8 Plain Text
Duration                    : 2 h 10 min
Bit rate                    : 0 b/s
Count of elements           : 4
Stream size                 : 90.0 Bytes (0%)
Title                       : Hungarian Forced
Language                    : Hungarian
Default                     : Yes
Forced                      : Yes

 

Hidden Content

    Give reaction or reply to this topic to see the hidden content.

 

  • Like 1
  • Thanks 3
  • Upvote 1

Share this post


Link to post
Share on other sites
Sign in to follow this  

  • Recently Browsing   0 members

    No registered users viewing this page.

×