Jump to content
PirateClub.hu
Sign in to follow this  
ninoel

Encanto. 2021.2160p.10bit.HDR.BluRay.6CH.x265.Hun

Recommended Posts

Encanto. 2021.2160p.10bit.HDR.BluRay.6CH.x265
szinkronizált, amerikai animációs vígjáték, kalandfilm, 102 perc, 3.3 Gb

encanto-v2.jpg

4k-ultra-hd_-_tv.png

hdr10x265.png

A Walt Disney Animation Studios új filmje, az ENCANTO egy különleges családról szól, a Madrigalokról, akik rejtve élnek Kolumbia hegységeiben. Mágikus otthonuk egy nyüzsgő városkában található, a csodákkal és bűbájjal teli Encantóban. Encanto varázsa a család minden gyermekét egyéni tehetséggel áldotta meg, az emberfeletti erőtől a gyógyítóerőig – minden gyermeket, kivéve egyet, Mirabelt. Ám mikor Mirabel felfedezi, hogy Encanto varázsát veszély fenyegeti, úgy érzi, hogy ő, az átlagos Madrigal lehet kivételes családjának egyetlen reménye.


RENDEZŐ: Jared Bush, Byron Howard
FORGATÓKÖNYVÍRÓ: Jared Bush, Charise Castro Smith, Lin-Manuel Miranda
ZENE: Germaine FrancoVideo

Spoiler

 

ID                          : 1
Format                      : HEVC
Format/Info                 : High Efficiency Video Coding
Format profile              : Main 10@L5@Main
HDR format                  : SMPTE ST 2086, HDR10 compatible
Codec ID                    : V_MPEGH/ISO/HEVC
Duration                    : 1 h 42 min
Bit rate                    : 4 124 kb/s
Width                       : 3 840 pixels
Height                      : 2 080 pixels
Display aspect ratio        : 1.85:1
Frame rate mode             : Constant
Frame rate                  : 23.976 (24000/1001) FPS
Color space                 : YUV
Chroma subsampling          : 4:2:0 (Type 2)
Bit depth                   : 10 bits
Bits/(Pixel*Frame)          : 0.022
Stream size                 : 2.94 GiB (95%)
Default                     : Yes
Forced                      : No
Color range                 : Limited
Color primaries             : BT.2020
Transfer characteristics    : PQ
Matrix coefficients         : BT.2020 non-constant
Mastering display color pri : Display P3
Mastering display luminance : min: 0.0050 cd/m2, max: 1000 cd/m2

Audio
ID                          : 2
Format                      : AC-3
Format/Info                 : Audio Coding 3
Commercial name             : Dolby Digital
Codec ID                    : A_AC3
Duration                    : 1 h 42 min
Bit rate mode               : Constant
Bit rate                    : 224 kb/s
Channel(s)                  : 6 channels
Channel layout              : L R C LFE Ls Rs
Sampling rate               : 48.0 kHz
Frame rate                  : 31.250 FPS (1536 SPF)
Compression mode            : Lossy
Stream size                 : 164 MiB (5%)
Language                    : Hungarian
Service kind                : Complete Main
Default                     : Yes
Forced                      : No

 

Hidden Content

    Give reaction or reply to this topic to see the hidden content.

 

  • Like 2
  • Thanks 10
  • Upvote 1

Share this post


Link to post
Share on other sites
Sign in to follow this  

  • Recently Browsing   0 members

    No registered users viewing this page.

×