Jump to content
PirateClub.hu
Sign in to follow this  
ninoel

Bécsi vér (Vienna Blood) 2020.2160p.10bit.SDR.BluRay.x265.Hun 1. T évad

Recommended Posts

Bécsi vér (Vienna Blood) 2020.2160p.10bit.SDR.BluRay.x265
szinkronizált, angol-osztrák krimisorozat, drámasorozat, 90 perc, évad 2.3-2.7  Gb/rész

vienna.jpg

4K_SDR_v3.png

hevc_265_hu_2.jpg

1900-as évek, Bécs: a filozófia, a tudomány és a művészet melegágya, ahol kultúrák és ötletek találkoznak, vagy éppen ütköznek a város legnagyobb kávézóiban. Max Liebermann híres pszichoanalitikus, nem mellesleg a közismert osztrák pszichiáter, Sigmund Freud lelkes fiatal hallgatója. Amikor véletlenül összetalálkozik Oskar Reinhardttal, a furcsa esetekkel küzdő nyomozóval, vállalja, hogy segít neki a szokatlan gyilkossági sorozatok felgöngyölítésében. Max rendkívüli észleléssel és kriminalisztikai készséggel van megáldva: mélyen megért különleges emberi viselkedéseket. Ezen képességeivel áll szolgálatba, hogy Reinhardttal együtt megoldják Bécs titokzatos haláleseteit.

Rendező: Umut Dag
Robert Dornhelm
Forgatókönyvíró: Steve Thompson
Producer:
Oliver Auspitz
Andreas Kamm
Stefan Rosenberg
Zene: Roman Kariolou

Szereplők:
Matthew Beard - Max Liebermann
Juergen Maurer - Oskar Reinhardt
Luise von Finckh - Clara
Jessica De Gouw - Amelia Lydgate

Spoiler

 

Video
ID                          : 1
Format                      : HEVC
Format/Info                 : High Efficiency Video Coding
Format profile              : Main 10@L5.1@High
HDR format                  : SMPTE ST 2094 App 4, Version 1, HDR10+ Profile B compatible
Codec ID                    : V_MPEGH/ISO/HEVC
Duration                    : 1 h 29 min
Bit rate                    : 3 384 kb/s
Width                       : 3 840 pixels
Height                      : 1 920 pixels
Display aspect ratio        : 2.000
Frame rate mode             : Constant
Frame rate                  : 25.000 FPS
Color space                 : YUV
Chroma subsampling          : 4:2:0 (Type 1)
Bit depth                   : 10 bits
Bits/(Pixel*Frame)          : 0.018
Stream size                 : 2.13 GiB (97%)
Title                       : Vienna Blood.S01E01.2160p.10bit.SDR.BluRay.x265
Default                     : Yes
Forced                      : No
Color range                 : Limited
Matrix coefficients         : BT.709

Audio
ID                          : 2
Format                      : AAC LC
Format/Info                 : Advanced Audio Codec Low Complexity
Codec ID                    : A_AAC-2
Duration                    : 1 h 29 min
Bit rate                    : 109 kb/s
Channel(s)                  : 2 channels
Channel layout              : L R
Sampling rate               : 48.0 kHz
Frame rate                  : 46.875 FPS (1024 SPF)
Compression mode            : Lossy
Delay relative to video     : 20 ms
Stream size                 : 70.3 MiB (3%)
Language                    : Hungarian
Default                     : Yes
Forced                      : No

 

Hidden Content

    Give reaction or reply to this topic to see the hidden content.

 

  • Thanks 3
  • Upvote 1

Share this post


Link to post
Share on other sites
Sign in to follow this  

  • Recently Browsing   0 members

    No registered users viewing this page.

×