Jump to content
PirateClub.hu
Sign in to follow this  
ninoel

Shrek. 2001.2160p.HDR10+.BluRay.6CH.x265.Hun

Recommended Posts

Shrek. 2001.2160p.HDR10+.BluRay.6CH.x265
szinkronizált, amerikai animációs film, 90 perc, 3.5 Gb

shrek.jpg

4k-ultra-hd_-_tv.png

hdr10x265.png

Hol volt, hol nem volt, egy messzi mocsárban, meghitt magányban élt egyszer egy morcos ogre, akit Shreknek hívtak. Ám a zöld szörny nyugalmát és életét egy napon fenekestül felbolygatta egy különös esemény: mesebeli lények lepték el a mocsarat – és lepték meg gyanútlan hősünket. A három vak egér futkározott a vacsoráján, a nagy, gonosz farkas feküdt az ágyában, a hét törpe Hófehérke koporsóját tette az asztalára, kunyhója előtt pedig ott nyüzsgött a három hajléktalan kismalac, és mindenféle más varázslatos figurák, akiket a gonosz Farquaad nagyúr űzött el otthonukból. Shrek tehát elment a nagyúrhoz, hogy visszakövetelje a mocsarát, de ehhez előbb meg kell mentenie a szörnyű tűzokádó sárkány karmaiból Fiona királylányt, hogy Farquaad feleségül vehesse, és így király lehessen. A nagy kalandban társa is akad az ogrének: a szószátyár Szamár, aki bármit megtenne Shrekért, egyvalamit kivéve: a világ minden kincséért sem hajlandó befogni a száját. Hamarosan kiderül, hogy a sárkánynál sokkal nagyobb problémát jelent Fiona különös titka...

RENDEZŐ: Andrew Adamson, Vicky Jenson
ÍRÓ: Ted Elliott, Terry Rossio, Joe Stillman
FORGATÓKÖNYVÍRÓ: William Steig, Cody Cameron, Chris Miller, Conrad Vernon
ZENE: Harry Gregson-Williams, John Powell
SZEREPLŐK: Cameron Diaz, Eddie Murphy, John Lithgow, Vincent Cassel, Mike Myers, Jim Cummings, Frank Welker, Conrad Vernon

Spoiler

 

Video
ID                          : 1
Format                      : HEVC
Format/Info                 : High Efficiency Video Coding
Format profile              : Main 10@L5.1@High
HDR format                  : SMPTE ST 2094 App 4, Version 1, HDR10+ Profile B compatible
Codec ID                    : V_MPEGH/ISO/HEVC
Duration                    : 1 h 30 min
Bit rate                    : 4 902 kb/s
Width                       : 3 840 pixels
Height                      : 2 160 pixels
Display aspect ratio        : 16:9
Frame rate mode             : Constant
Frame rate                  : 23.976 (24000/1001) FPS
Color space                 : YUV
Chroma subsampling          : 4:2:0 (Type 2)
Bit depth                   : 10 bits
Bits/(Pixel*Frame)          : 0.025
Stream size                 : 3.10 GiB (96%)
Default                     : Yes
Forced                      : No
Color range                 : Limited
Color primaries             : BT.2020
Transfer characteristics    : PQ
Matrix coefficients         : BT.2020 non-constant
Mastering display color pri : Display P3
Mastering display luminance : min: 0.0050 cd/m2, max: 1000 cd/m2
Maximum Content Light Level : 993 cd/m2
Maximum Frame-Average Light : 198 cd/m2

Audio
ID                          : 2
Format                      : AAC LC SBR
Format/Info                 : Advanced Audio Codec Low Complexity with Spectral Band Replication
Commercial name             : HE-AAC
Format settings             : Explicit
Codec ID                    : A_AAC-2
Duration                    : 1 h 30 min
Bit rate                    : 192 kb/s
Channel(s)                  : 6 channels
Channel layout              : C L R Ls Rs LFE
Sampling rate               : 48.0 kHz
Frame rate                  : 23.438 FPS (2048 SPF)
Compression mode            : Lossy
Delay relative to video     : 40 ms
Stream size                 : 125 MiB (4%)
Default                     : No
Forced                      : No

 

Hidden Content

    Give reaction or reply to this topic to see the hidden content.

 

  • Like 5
  • Thanks 12
  • Confused 1

Share this post


Link to post
Share on other sites

Shrek. 2001.2160p.HDR10+.BluRay.6CH.x265 újratöltve.

  • Like 1
  • Thanks 2

Share this post


Link to post
Share on other sites
Sign in to follow this  

  • Recently Browsing   0 members

    No registered users viewing this page.

×