Ugrás a tartalomhoz

buli.guru-logo

Fotó

Tango és Cash (Tango & Cash) 1989 HUN.DVDRip.XviD-uzoliAnafile/Online


  • Hozzászólás írásához be kell jelentkezni!
Még nem érkezett válasz erre a témára

#1
schiessildi

schiessildi

    Vadállat

  • Feltöltő
  • PipaPipaPipaPipaPipaPipaPipaPipaPipa
  • 8397
  • 16265 Hozzászólás
  • 6043 köszönet
tango_y_cash_1989_4.jpg

Színes, magyarul beszélő, amerikai akció-vígjáték, 100 perc, 1989

rendező: Andrei Konchalovsky
forgatókönyvíró: Randy Feldman
operatőr: Donald E. Thorin
díszlettervező: Marvin March
jelmeztervező: Bernie Pollack
zene: Harold Faltermeyer
producer: Peter Guber, Jon Peters
executive producer: Peter MacDonald
látványtervező: J. Michael Riva
vágó: Robert A. Ferretti, Hubert C. de la Bouillerie

szereplő(k):
Sylvester Stallone (Ray Tango)
Kurt Russell (Gabe Cash)
Teri Hatcher (Kiki)
Jack Palance (Yves Perret)
James Hong (Quan)
Marc Alaimo (Lopez)
Edward Bunker (Holmes kapitány)
Clint Howard (Slinky)
Lewis Arquette (Wyler)

Tango és Cash két belevaló Los Angeles-i zsaru. Örökös vetélkedésük célja: ismerje el a másik, hogy ő a nyomozók toplistájának éllovasa. Miközben hol az egyik, hol a másik göngyölít fel egy nagy ügyet, a helyi kábítószer- és fegyverkereskedő maffia megelégeli, hogy állandóan keresztbe tesznek a jó üzleteinek. Az őrült főnök fantasztikus tervet eszel ki félreállításukra: nyakukba varr egy friss hullát, egy heroinos és egy dollárkötegekkel megtömött táskát. A két zsaru rács mögé kerül, és csak egyetlen módjuk van a szabadulásra: ha összefognak.

General
Format : AVI
Format/Info : Audio Video Interleave
File size : 1.09 GiB
Duration : 1h 39mn
Overall bit rate : 1 559 Kbps
Writing application : VirtualDubMod 1.5.10.2 (build 2540/release)
Writing library : VirtualDubMod build 2540/release

Video
ID : 0
Format : MPEG-4 Visual
Format profile : Advanced Simple@L5
Format settings, BVOP : 1
Format settings, QPel : No
Format settings, GMC : No warppoints
Format settings, Matrix : Default (H.263)
Codec ID : XVID
Codec ID/Hint : XviD
Duration : 1h 39mn
Bit rate : 1 166 Kbps
Width : 624 pixels
Height : 256 pixels
Display aspect ratio : 2.40:1
Frame rate : 25.000 fps
Color space : YUV
Chroma subsampling : 4:2:0
Bit depth : 8 bits
Scan type : Progressive
Compression mode : Lossy
Bits/(Pixel*Frame) : 0.292
Stream size : 831 MiB (75%)
Writing library : XviD 64

Audio
ID : 1
Format : AC-3
Format/Info : Audio Coding 3
Mode extension : CM (complete main)
Format settings, Endianness : Big
Codec ID : 2000
Duration : 1h 39mn
Bit rate mode : Constant
Bit rate : 384 Kbps
Channel(s) : 6 channels
Channel positions : Front: L C R, Side: L R, LFE
Sampling rate : 48.0 KHz
Bit depth : 16 bits
Compression mode : Lossy
Stream size : 274 MiB (25%)
Alignment : Split accross interleaves
Interleave, duration : 40 ms (1.00 video frame)
Interleave, preload duration : 500 ms

Kérlek Jelentkezz be vagy Regisztrálj hogy lásd a rejtett tartalmat.

Kérlek Jelentkezz be vagy Regisztrálj hogy lásd a rejtett tartalmat.


  • 0

buli.guru-logo




0 felhasználó olvassa ezt a témát.

0 felhasználó, 0 vendég, 0 anonim felhasználó