Ugrás a tartalomhoz

kp.hu-banner

Fotó

Denevérek: Az emberfalók (Bats: Human Harvest) 2007 DVDRiP XviD Hungarian-TvTiMEBitshare/Filevice/Horror/1klikk


  • Hozzászólás írásához be kell jelentkezni!
Még nem érkezett válasz erre a témára

#1
schiessildi

schiessildi

    Vadállat

  • Feltöltő
  • PipaPipaPipaPipaPipaPipaPipaPipaPipa
  • 15715 Hozzászólás
  • 5623 köszönet
kép

Színes, magyarul beszélő, amerikai horror, 84 perc, 2007

rendező: Jamie Dixon
forgatókönyvíró: Chris Denk, Brett Merryman
zeneszerző: James Bairian, Louis Castle
jelmeztervező: Maria Mladenoza
producer: Jeffery Beach, David Hillary, Phillip J. Roth
vágó: Matt Michael

szereplő(k):
David Chokachi (Russo)
Tomas Arana (Dr. Benton Walsh)
Michael Jace (Martinez)
Pollyanna McIntosh (Katya)
Marty Papazian (Downey)
Mike Straub (Candell)
Melissa De Sousa (O'Neal)

Afganisztánban amerikai kommandósok ütnek rajta az Al-Kaida terrorszervezet egyik kiképző bázisán. A terroristák fanatikus vezérét, Fazult akarják elfogni. Az akció csak részben éri el a várt eredményt, Fazulnak sikerül elmenekülnie. A terrorista beveszi magát a környéken lévő barlangokba. A csapat is utána megy a barlangrendszerbe, ám egy valamivel nem számoltak. A barlangokban genetikailag módosított, húsevő denevérek élnek, amelyek arra vannak programozva, hogy megtámadják az embereket. Mindez egy őrült tudós műve, aki az állatokkal kísérletezett.

General
Format : AVI
Format/Info : Audio Video Interleave
File size : 701 MiB
Duration : 1h 23mn
Overall bit rate : 1 172 Kbps
Writing application : Nandub v1.0rc2
Writing library : Nandub build 1853/release

Video
ID : 0
Format : MPEG-4 Visual
Format profile : Advanced Simple@L5
Format settings, BVOP : 2
Format settings, QPel : No
Format settings, GMC : No warppoints
Format settings, Matrix : Default (MPEG)
Muxing mode : Packed bitstream
Codec ID : XVID
Codec ID/Hint : XviD
Duration : 1h 23mn
Bit rate : 1 027 Kbps
Width : 592 pixels
Height : 320 pixels
Display aspect ratio : 1.850
Frame rate : 25.000 fps
Color space : YUV
Chroma subsampling : 4:2:0
Bit depth : 8 bits
Scan type : Progressive
Compression mode : Lossy
Bits/(Pixel*Frame) : 0.217
Stream size : 614 MiB (88%)
Writing library : XviD 1.2.0.dev47 (UTC 2006-11-01)

Audio
ID : 1
Format : MPEG Audio
Format version : Version 1
Format profile : Layer 3
Mode : Joint stereo
Mode extension : MS Stereo
Codec ID : 55
Codec ID/Hint : MP3
Duration : 1h 23mn
Bit rate mode : Variable
Bit rate : 130 Kbps
Channel(s) : 2 channels
Sampling rate : 48.0 KHz
Compression mode : Lossy
Stream size : 78.6 MiB (11%)
Alignment : Aligned on interleaves
Interleave, duration : 24 ms (0.60 video frame)
Interleave, preload duration : 475 ms
Writing library : LAME3.96
Encoding settings : -m j -V 4 -q 3 -lowpass 17.5 --abr 130

Kérlek Jelentkezz be vagy Regisztrálj hogy lásd a rejtett tartalmat.


  • 0




0 felhasználó olvassa ezt a témát.

0 felhasználó, 0 vendég, 0 anonim felhasználó